Imany – The Shape of a Broken Heart (Japanese Edition) (2013)

Download
Imany - The Shape of a Broken Heart (Japanese Edition) (2013)

Imany – The Shape of a Broken Heart (Japanese Edition) (2013)
XLD Rip | FLAC (tracks+.cue, log) ~ 313.94 Mb + 109.51 Mb (Scans) | 50:24
Pop, Soul, Folk, Singer-Songwriter | Country: France | Label: Respect Records Ltd. (RES-227)

Inspired by the likes of Billie Holiday, Nina Simone, and Tracy Chapman, the latter of whom she is often compared to, Shape of a Broken Heart is the debut album from former French catwalk model Nadia Mladjao, aka Imany. Produced by Malick N’Diaye (Ayo) its 14 English-language tracks offer up a mixture of acoustic folk, heartfelt soul, and passionate blues, and includes the single "You Will Never Know." ~ AllMusic Review by Jon O’Brien

Track List:
1. Slow Down
2. You Will Never Know
3. Kisses in the Dark
4. Where Have You Been
5. Grey Monday
6. Please and Change
7. Seat With Me
8. Shape of a Broken Heart
9. Pray for Help
10. I’ve Gotta Go
11. I Lost My Keys
12. Take Care

Bonus Tracks:
13. Un Gospel Pour Madame (Pray for Help): Duet with Tété
14. I’ll Be There

Imany - The Shape of a Broken Heart (Japanese Edition) (2013)

XLD log
X Lossless Decoder version 20141129 (148.1)

XLD extraction logfile from 2015-02-21 18:07:21 +0900

Imany / The Shape of a Broken Heart

Used drive : MATSHITA DVD-R UJ-8A8 (revision HB14)
Media type : Pressed CD

Ripper mode : XLD Secure Ripper
Disable audio cache : OK for the drive with a cache less than 1375KiB
Make use of C2 pointers : NO
Read offset correction : 102
Max retry count : 20
Gap status : Analyzed, Appended (except HTOA)

TOC of the extracted CD
Track | Start | Length | Start sector | End sector
––––––––––––––––––––––––––––-
1 | 00:00:00 | 04:12:74 | 0 | 18973
2 | 04:12:74 | 03:48:66 | 18974 | 36139
3 | 08:01:65 | 03:47:10 | 36140 | 53174
4 | 11:49:00 | 04:15:22 | 53175 | 72321
5 | 16:04:22 | 03:13:17 | 72322 | 86813
6 | 19:17:39 | 03:10:08 | 86814 | 101071
7 | 22:27:47 | 04:27:53 | 101072 | 121149
8 | 26:55:25 | 04:40:34 | 121150 | 142183
9 | 31:35:59 | 03:12:11 | 142184 | 156594
10 | 34:47:70 | 03:55:11 | 156595 | 174230
11 | 38:43:06 | 04:28:70 | 174231 | 194400
12 | 43:12:01 | 03:08:30 | 194401 | 208530
13 | 46:20:31 | 03:22:20 | 208531 | 223700
14 | 49:42:51 | 03:16:57 | 223701 | 238457

AccurateRip Summary (DiscID: 001be3a4-0128856d-e00c6b0e)
Track 01 : OK (v2, confidence 3/3)
Track 02 : OK (v2, confidence 3/3)
Track 03 : OK (v2, confidence 3/3)
Track 04 : OK (v2, confidence 3/3)
Track 05 : OK (v2, confidence 3/3)
Track 06 : OK (v2, confidence 3/3)
Track 07 : OK (v2, confidence 3/3)
Track 08 : OK (v2, confidence 3/3)
Track 09 : OK (v2, confidence 2/2)
Track 10 : OK (v2, confidence 2/2)
Track 11 : OK (v2, confidence 2/2)
Track 12 : OK (v2, confidence 2/2)
Track 13 : OK (v2, confidence 2/2)
Track 14 : OK (v2, confidence 2/2)
->All tracks accurately ripped.

All Tracks
Album gain : -7.72 dB
Peak : 1.000000
Statistics
Read error : 0
Jitter error (maybe fixed) : 0
Retry sector count : 0
Damaged sector count : 0

Track 01
Filename : /Volumes/MY PASSPORT/Imany – The Shape of a Broken Heart (2013) – FLAC/01 Slow Down.flac
Pre-gap length : 00:02:00

Track gain : -7.45 dB
Peak : 1.000000
CRC32 hash (test run) : 101EEDE6
CRC32 hash : 101EEDE6
CRC32 hash (skip zero) : 67A4FD1B
AccurateRip v1 signature : CF2332E2
AccurateRip v2 signature : FAA3EA7F
->Accurately ripped (v2, confidence 3/3)
Statistics
Read error : 0
Jitter error (maybe fixed) : 0
Retry sector count : 0
Damaged sector count : 0

Track 02
Filename : /Volumes/MY PASSPORT/Imany – The Shape of a Broken Heart (2013) – FLAC/02 You Will Never Know.flac

Track gain : -8.13 dB
Peak : 1.000000
CRC32 hash (test run) : 93C2DDB5
CRC32 hash : 93C2DDB5
CRC32 hash (skip zero) : 863C8FC0
AccurateRip v1 signature : 6CB60E13
AccurateRip v2 signature : E3D31918
->Accurately ripped (v2, confidence 3/3)
Statistics
Read error : 0
Jitter error (maybe fixed) : 0
Retry sector count : 0
Damaged sector count : 0

Track 03
Filename : /Volumes/MY PASSPORT/Imany – The Shape of a Broken Heart (2013) – FLAC/03 Kisses in the Dark.flac

Track gain : -7.67 dB
Peak : 1.000000
CRC32 hash (test run) : 3AC9E50D
CRC32 hash : 3AC9E50D
CRC32 hash (skip zero) : EBD693D1
AccurateRip v1 signature : 61498ECD
AccurateRip v2 signature : 662479CE
->Accurately ripped (v2, confidence 3/3)
Statistics
Read error : 0
Jitter error (maybe fixed) : 0
Retry sector count : 0
Damaged sector count : 0

Track 04
Filename : /Volumes/MY PASSPORT/Imany – The Shape of a Broken Heart (2013) – FLAC/04 Where Have You Been.flac

Track gain : -7.05 dB
Peak : 1.000000
CRC32 hash (test run) : 10AFAF9D
CRC32 hash : 10AFAF9D
CRC32 hash (skip zero) : 06B16707
AccurateRip v1 signature : B587D6D9
AccurateRip v2 signature : 69BD6B6E
->Accurately ripped (v2, confidence 3/3)
Statistics
Read error : 0
Jitter error (maybe fixed) : 0
Retry sector count : 0
Damaged sector count : 0

Track 05
Filename : /Volumes/MY PASSPORT/Imany – The Shape of a Broken Heart (2013) – FLAC/05 Grey Monday.flac

Track gain : -8.17 dB
Peak : 1.000000
CRC32 hash (test run) : 68C51C1E
CRC32 hash : 68C51C1E
CRC32 hash (skip zero) : F650B39E
AccurateRip v1 signature : 4EA03BB6
AccurateRip v2 signature : 1411FD69
->Accurately ripped (v2, confidence 3/3)
Statistics
Read error : 0
Jitter error (maybe fixed) : 0
Retry sector count : 0
Damaged sector count : 0

Track 06
Filename : /Volumes/MY PASSPORT/Imany – The Shape of a Broken Heart (2013) – FLAC/06 Please and Change.flac

Track gain : -7.62 dB
Peak : 1.000000
CRC32 hash (test run) : 3CDFFC98
CRC32 hash : 3CDFFC98
CRC32 hash (skip zero) : 8DDE0B5E
AccurateRip v1 signature : D21B5301
AccurateRip v2 signature : 2856E68A
->Accurately ripped (v2, confidence 3/3)
Statistics
Read error : 0
Jitter error (maybe fixed) : 0
Retry sector count : 0
Damaged sector count : 0

Track 07
Filename : /Volumes/MY PASSPORT/Imany – The Shape of a Broken Heart (2013) – FLAC/07 Seat With Me.flac

Track gain : -7.26 dB
Peak : 1.000000
CRC32 hash (test run) : 3E329DDA
CRC32 hash : 3E329DDA
CRC32 hash (skip zero) : D2DA9964
AccurateRip v1 signature : 7967A586
AccurateRip v2 signature : C1CF3502
->Accurately ripped (v2, confidence 3/3)
Statistics
Read error : 0
Jitter error (maybe fixed) : 0
Retry sector count : 0
Damaged sector count : 0

Track 08
Filename : /Volumes/MY PASSPORT/Imany – The Shape of a Broken Heart (2013) – FLAC/08 Shape of a Broken Heart.flac

Track gain : -8.22 dB
Peak : 1.000000
CRC32 hash (test run) : 64B0B363
CRC32 hash : 64B0B363
CRC32 hash (skip zero) : CA151041
AccurateRip v1 signature : CEB056C7
AccurateRip v2 signature : 63696BE9
->Accurately ripped (v2, confidence 3/3)
Statistics
Read error : 0
Jitter error (maybe fixed) : 0
Retry sector count : 0
Damaged sector count : 0

Track 09
Filename : /Volumes/MY PASSPORT/Imany – The Shape of a Broken Heart (2013) – FLAC/09 Pray for Help.flac

Track gain : -7.28 dB
Peak : 1.000000
CRC32 hash (test run) : 55E2949D
CRC32 hash : 55E2949D
CRC32 hash (skip zero) : 71E4776D
AccurateRip v1 signature : 06F1171C
AccurateRip v2 signature : 8ECE2517
->Accurately ripped (v2, confidence 2/2)
Statistics
Read error : 0
Jitter error (maybe fixed) : 0
Retry sector count : 0
Damaged sector count : 0

Track 10
Filename : /Volumes/MY PASSPORT/Imany – The Shape of a Broken Heart (2013) – FLAC/10 I’ve Gotta Go.flac

Track gain : -8.46 dB
Peak : 1.000000
CRC32 hash (test run) : CCF02054
CRC32 hash : CCF02054
CRC32 hash (skip zero) : 5D02E4F2
AccurateRip v1 signature : 137152B6
AccurateRip v2 signature : 97BDEB1D
->Accurately ripped (v2, confidence 2/2)
Statistics
Read error : 0
Jitter error (maybe fixed) : 0
Retry sector count : 0
Damaged sector count : 0

Track 11
Filename : /Volumes/MY PASSPORT/Imany – The Shape of a Broken Heart (2013) – FLAC/11 I Lost My Keys.flac

Track gain : -7.80 dB
Peak : 1.000000
CRC32 hash (test run) : 2646456F
CRC32 hash : 2646456F
CRC32 hash (skip zero) : 39CD5C1C
AccurateRip v1 signature : 5990F277
AccurateRip v2 signature : 7B57F41B
->Accurately ripped (v2, confidence 2/2)
Statistics
Read error : 0
Jitter error (maybe fixed) : 0
Retry sector count : 0
Damaged sector count : 0

Track 12
Filename : /Volumes/MY PASSPORT/Imany – The Shape of a Broken Heart (2013) – FLAC/12 Take Care.flac

Track gain : -7.16 dB
Peak : 1.000000
CRC32 hash (test run) : 7FB677D1
CRC32 hash : 7FB677D1
CRC32 hash (skip zero) : 64442B33
AccurateRip v1 signature : B13990CD
AccurateRip v2 signature : 640715DC
->Accurately ripped (v2, confidence 2/2)
Statistics
Read error : 0
Jitter error (maybe fixed) : 0
Retry sector count : 0
Damaged sector count : 0

Track 13
Filename : /Volumes/MY PASSPORT/Imany – The Shape of a Broken Heart (2013) – FLAC/13 Un Gospel Pour Madame (Pray For Help): Duet With Tete.flac
Pre-gap length : 00:03:64

Track gain : -7.73 dB
Peak : 0.954987
CRC32 hash (test run) : E1636450
CRC32 hash : E1636450
CRC32 hash (skip zero) : AA2C55E5
AccurateRip v1 signature : E4B46DBE
AccurateRip v2 signature : E8AEB3F2
->Accurately ripped (v2, confidence 2/2)
Statistics
Read error : 0
Jitter error (maybe fixed) : 0
Retry sector count : 0
Damaged sector count : 0

Track 14
Filename : /Volumes/MY PASSPORT/Imany – The Shape of a Broken Heart (2013) – FLAC/14 I’ll Be There.flac
Pre-gap length : 00:03:29

Track gain : -6.19 dB
Peak : 0.999969
CRC32 hash (test run) : BC2B09B7
CRC32 hash : BC2B09B7
CRC32 hash (skip zero) : 68ECF8E3
AccurateRip v1 signature : DCECA924
AccurateRip v2 signature : 9804F8C4
->Accurately ripped (v2, confidence 2/2)
Statistics
Read error : 0
Jitter error (maybe fixed) : 0
Retry sector count : 0
Damaged sector count : 0

No errors occurred

End of status report

––-BEGIN XLD SIGNATURE––-
9QHD1e8c1G6F9BGrDCFp2ilh3JZTM8ladhH718q1UzHKlxCJUPHuqQW9s6Z.rMEK2pK7Y8EzgYkCpv9G7o0rMnsqyWuCSNT_RmfNMiO
––-END XLD SIGNATURE––-

All thanks go to the VVar10ck

More Music in My Blog
Follow My RSS Channel

Imany – The Shape of a Broken Heart (Japanese Edition) (2013) Download, Warez, DDL, Free, Full Album, Torrent, Legal.

Download