Iggy Pop – Austin City Limits (2016) [HDTV 1080i] | ViralVideoPk

Daily Dose of Free Downloads

Iggy Pop – Austin City Limits (2016) [HDTV 1080i]

Download

Iggy Pop - Austin City Limits (2016) [HDTV 1080i]

Iggy Pop – Austin City Limits (2016)
TS: MPEG2 Video 1920×1080 29.97fps | Dolby AC3, 6ch 384kbps
Rock / Glam / Proto-Punk | 00:52:41 | ~ 3.58 Gb

~ Iggy Pop Live at The Moody Theater, Austin, TX, USA on March 15, 2016 ~

Iggy Pop - Austin City Limits (2016) [HDTV 1080i]

Iggy Pop at Wiki | Iggy Pop at Discogs | Iggy Pop at Allmusic | Iggy Pop HomePage

***********

Iggy Pop – Austin City Limits (2016):

Tracklist:

Lust for Life
American Valhalla
Sweet 16
In the Lobby
Some Weird Sin
Funtime
Tonight
Sunday
China Girl
Break Into Your Heart
Gardenia
interview
closing credits

Musicians:

Iggy Pop – vocals
Josh Homme- guitar, vocals
Dean Fertita- guitar, vocals
Matt Helders- drums, vocals
Troy Van Leeuwen- guitar, keyboards, percussion, vocals
Matt Sweeney- bass, vocals

MediaInfo
General
ID : 1 (0x1)
Complete name : G:UPMixIggy Pop – Austin City Limits 2016Iggy Pop – Austin City Limits 2016.ts
Format : MPEG-TS
File size : 3.39 GiB
Duration : 52mn 40s
Overall bit rate mode : Variable
Overall bit rate : 9 224 Kbps
Maximum Overall bit rate : 35.5 Mbps

Video
ID : 4113 (0x1011)
Menu ID : 1 (0x1)
Format : MPEG Video
Format version : Version 2
Format profile : Main@High
Format settings, BVOP : Yes
Format settings, Matrix : Custom
Format settings, GOP : Variable
Codec ID : 2
Duration : 52mn 40s
Bit rate mode : Variable
Bit rate : 8 380 Kbps
Maximum bit rate : 80.0 Mbps
Width : 1 920 pixels
Height : 1 080 pixels
Display aspect ratio : 16:9
Active Format Description : Full frame 16:9 image
Frame rate : 29.970 fps
Color space : YUV
Chroma subsampling : 4:2:0
Bit depth : 8 bits
Scan type : Interlaced
Scan order : Top Field First
Compression mode : Lossy
Bits/(Pixel*Frame) : 0.135
Time code of first frame : 00:00:00;00
Time code source : Group of pictures header
Stream size : 3.08 GiB (91%)
Color primaries : BT.709
Transfer characteristics : BT.709
Matrix coefficients : BT.709

Audio
ID : 4352 (0x1100)
Menu ID : 1 (0x1)
Format : AC-3
Format/Info : Audio Coding 3
Mode extension : CM (complete main)
Format settings, Endianness : Big
Codec ID : 129
Duration : 52mn 40s
Bit rate mode : Constant
Bit rate : 384 Kbps
Channel(s) : 6 channels
Channel positions : Front: L C R, Side: L R, LFE
Sampling rate : 48.0 KHz
Bit depth : 16 bits
Compression mode : Lossy
Delay relative to video : 5ms
Stream size : 145 MiB (4%)
Language : English

Text
ID : 4113 (0x1011)-CC1
Menu ID : 1 (0x1)
Format : EIA-608
Muxing mode : A/53 / DTVCC Transport
Muxing mode, more info : Muxed in Video #1
Duration : 52mn 40s
Bit rate mode : Constant
Stream size : 0.00 Byte (0%)

Iggy Pop - Austin City Limits (2016) [HDTV 1080i]

Iggy Pop - Austin City Limits (2016) [HDTV 1080i]

Iggy Pop - Austin City Limits (2016) [HDTV 1080i]

Iggy Pop - Austin City Limits (2016) [HDTV 1080i]

Iggy Pop - Austin City Limits (2016) [HDTV 1080i]

Iggy Pop - Austin City Limits (2016) [HDTV 1080i]

All thanks go to meloman67

Iggy Pop in my Blog

Download Iggy Pop – Austin City Limits (2016):

Iggy Pop – Austin City Limits (2016) [HDTV 1080i] Download, Warez, DDL, Free, Full Album, Torrent, Legal.

Download


  • Recent Posts

  • Recent Tags