Ian Moss – Let's All Get Together (2007)

Download
Ian Moss - Let's All Get Together (2007)

Ian Moss – Let’s All Get Together (2007)
Rock | 1cd | EAC Rip | Flac + Cue + Log | covers
Liberation Music, BLUE148.2 | rel: 2007 | 590Mb

Acoustic Album from Singer Songwriter and Co-founding Member of Cold Chisel. ‘let’s all Get Together’ Seamlessly Fuses Rock, Soul, Jazz and Blues with Mossy’s Trademark Laid Back Style.

Track listing
01. Let’s All Get Together (5:39)
02. Choir Girl (3:56)
03. Happy Day (4:40)
04. Such A Beautiful Thing (3:55)
05. The Girl I Once Knew (4:22)
06. Red Sand (4:15)
07. Blame It On The Sun (3:11)
08. Flame Trees (7:01)
09. Janelle (3:18)
10. That’s The Way It Is (3:24)
11. Out Of The Fire (5:07)
12. Mr Rain (5:18)
13. When The War Is Over (5:41)
14. Thunderball (3:19)
15. Georgia On My Mind (5:41)

Personnel
– Guitar – Ian Moss
– Vocals – Ian Moss

eac log:
Exact Audio Copy V1.0 beta 3 from 29. August 2011

EAC extraction logfile from 30. November 2016, 4:00

Ian Moss / Let’s All Get Together

Used drive : HL-DT-STDVDRAM GH24NS90 Adapter: 1 ID: 0

Read mode : Secure
Utilize accurate stream : Yes
Defeat audio cache : Yes
Make use of C2 pointers : No

Read offset correction : 6
Overread into Lead-In and Lead-Out : No
Fill up missing offset samples with silence : Yes
Delete leading and trailing silent blocks : No
Null samples used in CRC calculations : Yes
Used interface : Native Win32 interface for Win NT & 2000
Gap handling : Appended to previous track

Used output format : User Defined Encoder
Selected bitrate : 1024 kBit/s
Quality : High
Add ID3 tag : No
Command line compressor : C:Program Files (x86)FLACmetaflac.exe
Additional command line options : -8

TOC of the extracted CD

Track | Start | Length | Start sector | End sector
––––––––––––––––––––––––––––-
1 | 0:00.00 | 5:39.45 | 0 | 25469
2 | 5:39.45 | 3:57.06 | 25470 | 43250
3 | 9:36.51 | 4:40.55 | 43251 | 64305
4 | 14:17.31 | 3:55.13 | 64306 | 81943
5 | 18:12.44 | 4:22.64 | 81944 | 101657
6 | 22:35.33 | 4:15.14 | 101658 | 120796
7 | 26:50.47 | 3:12.12 | 120797 | 135208
8 | 30:02.59 | 7:01.07 | 135209 | 166790
9 | 37:03.66 | 3:18.74 | 166791 | 181714
10 | 40:22.65 | 3:24.69 | 181715 | 197083
11 | 43:47.59 | 5:09.11 | 197084 | 220269
12 | 48:56.70 | 5:21.00 | 220270 | 244344
13 | 54:17.70 | 5:41.60 | 244345 | 269979
14 | 59:59.55 | 3:20.27 | 269980 | 285006
15 | 63:20.07 | 5:41.64 | 285007 | 310645

Track 1

Filename C:Exact Audio CopyIan MossLet’s All Get Together1. Let’s All Get Together.wav

Pre-gap length 0:00:02.00

Peak level 100.0 %
Extraction speed 1.0 X
Track quality 99.9 %
Test CRC 1240D028
Copy CRC 1240D028
Accurately ripped (confidence 6) [B7B3DF67] (AR v2)
Copy OK

Track 2

Filename C:Exact Audio CopyIan MossLet’s All Get Together2. Choir Girl.wav

Peak level 98.8 %
Extraction speed 1.2 X
Track quality 100.0 %
Test CRC 896A51C3
Copy CRC 896A51C3
Accurately ripped (confidence 6) [D28D1D43] (AR v2)
Copy OK

Track 3

Filename C:Exact Audio CopyIan MossLet’s All Get Together3. Happy Day.wav

Pre-gap length 0:00:00.19

Peak level 98.8 %
Extraction speed 1.4 X
Track quality 100.0 %
Test CRC ED9BA615
Copy CRC ED9BA615
Accurately ripped (confidence 6) [556B726C] (AR v2)
Copy OK

Track 4

Filename C:Exact Audio CopyIan MossLet’s All Get Together4. Such A Beautiful Thing.wav

Peak level 98.8 %
Extraction speed 1.4 X
Track quality 100.0 %
Test CRC DB6CB3CC
Copy CRC DB6CB3CC
Accurately ripped (confidence 6) [81CFC268] (AR v2)
Copy OK

Track 5

Filename C:Exact Audio CopyIan MossLet’s All Get Together5. The Girl I Once Knew.wav

Peak level 98.8 %
Extraction speed 1.5 X
Track quality 100.0 %
Test CRC 7CEC4987
Copy CRC 7CEC4987
Accurately ripped (confidence 5) [E315D258] (AR v2)
Copy OK

Track 6

Filename C:Exact Audio CopyIan MossLet’s All Get Together6. Red Sand.wav

Peak level 98.8 %
Extraction speed 1.6 X
Track quality 100.0 %
Test CRC F5FCFD5A
Copy CRC F5FCFD5A
Accurately ripped (confidence 6) [480F3308] (AR v2)
Copy OK

Track 7

Filename C:Exact Audio CopyIan MossLet’s All Get Together7. Blame It On The Sun.wav

Pre-gap length 0:00:00.09

Peak level 98.8 %
Extraction speed 1.5 X
Track quality 100.0 %
Test CRC BD635500
Copy CRC BD635500
Accurately ripped (confidence 6) [33014E01] (AR v2)
Copy OK

Track 8

Filename C:Exact Audio CopyIan MossLet’s All Get Together8. Flame Trees.wav

Pre-gap length 0:00:00.31

Peak level 98.8 %
Extraction speed 1.9 X
Track quality 100.0 %
Test CRC 32782670
Copy CRC 32782670
Accurately ripped (confidence 5) [32A2AB4D] (AR v2)
Copy OK

Track 9

Filename C:Exact Audio CopyIan MossLet’s All Get Together9. Janelle.wav

Peak level 98.8 %
Extraction speed 1.8 X
Track quality 100.0 %
Test CRC E8DE8D67
Copy CRC E8DE8D67
Accurately ripped (confidence 5) [7DE31CC5] (AR v2)
Copy OK

Track 10

Filename C:Exact Audio CopyIan MossLet’s All Get Together10. That’s The Way It Is.wav

Peak level 98.8 %
Extraction speed 1.9 X
Track quality 100.0 %
Test CRC 67081D22
Copy CRC 67081D22
Accurately ripped (confidence 6) [E68F096F] (AR v2)
Copy OK

Track 11

Filename C:Exact Audio CopyIan MossLet’s All Get Together11. Out Of The Fire.wav

Pre-gap length 0:00:00.22

Peak level 98.8 %
Extraction speed 2.1 X
Track quality 100.0 %
Test CRC 7FA1D6BF
Copy CRC 7FA1D6BF
Accurately ripped (confidence 5) [15466C4F] (AR v2)
Copy OK

Track 12

Filename C:Exact Audio CopyIan MossLet’s All Get Together12. Mr Rain.wav

Pre-gap length 0:00:01.35

Peak level 98.8 %
Extraction speed 1.9 X
Track quality 99.9 %
Test CRC 5A0C195F
Copy CRC 5A0C195F
Accurately ripped (confidence 5) [EFFC4E99] (AR v2)
Copy OK

Track 13

Filename C:Exact Audio CopyIan MossLet’s All Get Together13. When The War Is Over.wav

Pre-gap length 0:00:02.02

Peak level 98.8 %
Extraction speed 2.2 X
Track quality 100.0 %
Test CRC 51C8D383
Copy CRC 51C8D383
Accurately ripped (confidence 6) [A4484863] (AR v2)
Copy OK

Track 14

Filename C:Exact Audio CopyIan MossLet’s All Get Together14. Thunderball.wav

Pre-gap length 0:00:00.57

Peak level 98.8 %
Extraction speed 2.1 X
Track quality 100.0 %
Test CRC 0DD0D035
Copy CRC 0DD0D035
Accurately ripped (confidence 6) [1933CF84] (AR v2)
Copy OK

Track 15

Filename C:Exact Audio CopyIan MossLet’s All Get Together15. Georgia On My Mind.wav

Pre-gap length 0:00:00.74

Peak level 98.8 %
Extraction speed 2.4 X
Track quality 100.0 %
Test CRC 78FA6935
Copy CRC 78FA6935
Accurately ripped (confidence 5) [F2F05723] (AR v2)
Copy OK

All tracks accurately ripped

No errors occurred

End of status report

–– CUETools DB Plugin V2.1.6

[CTDB TOCID: LJzTVGgexqHseJXP3Z4fahBl1T4-] found
Submit result: LJzTVGgexqHseJXP3Z4fahBl1T4- has been confirmed
Track | CTDB Status
1 | (21/21) Accurately ripped
2 | (21/21) Accurately ripped
3 | (21/21) Accurately ripped
4 | (21/21) Accurately ripped
5 | (20/21) Accurately ripped
6 | (20/21) Accurately ripped
7 | (19/21) Accurately ripped
8 | (19/21) Accurately ripped
9 | (21/21) Accurately ripped
10 | (21/21) Accurately ripped
11 | (21/21) Accurately ripped
12 | (21/21) Accurately ripped
13 | (19/21) Accurately ripped
14 | (20/21) Accurately ripped
15 | (21/21) Accurately ripped

==== Log checksum 00FC7E050D88A9BD422C9B707EE500DF980906ADA1650765A70FBA8244329C82 ====

cuetools report:
[CUETools log; Date: 2016. 12. 20. 17:37:20; Version: 2.1.6]
[CTDB TOCID: LJzTVGgexqHseJXP3Z4fahBl1T4-] found.
Track | CTDB Status
1 | (23/23) Accurately ripped
2 | (23/23) Accurately ripped
3 | (23/23) Accurately ripped
4 | (23/23) Accurately ripped
5 | (22/23) Accurately ripped
6 | (22/23) Accurately ripped
7 | (21/23) Accurately ripped
8 | (21/23) Accurately ripped
9 | (23/23) Accurately ripped
10 | (23/23) Accurately ripped
11 | (23/23) Accurately ripped
12 | (23/23) Accurately ripped
13 | (21/23) Accurately ripped
14 | (22/23) Accurately ripped
15 | (23/23) Accurately ripped
[AccurateRip ID: 00255c59-01a6e94c-d3102d0f] found.
Track [ CRC | V2 ] Status
01 [fd8e1f56|b7b3df67] (10+07/24) Accurately ripped
02 [28cf7979|d28d1d43] (10+07/24) Accurately ripped
03 [9f025304|556b726c] (10+07/24) Accurately ripped
04 [cd62f839|81cfc268] (10+07/24) Accurately ripped
05 [a3ed324d|e315d258] (10+06/23) Accurately ripped
06 [2139164e|480f3308] (09+07/23) Accurately ripped
07 [4ff262c6|33014e01] (10+07/24) Accurately ripped
08 [73ee3b70|32a2ab4d] (10+06/23) Accurately ripped
09 [64b9b432|7de31cc5] (10+06/23) Accurately ripped
10 [ca0ed06a|e68f096f] (10+07/24) Accurately ripped
11 [4dc5cd49|15466c4f] (10+06/23) Accurately ripped
12 [138e639e|effc4e99] (08+06/21) Accurately ripped
13 [c5d31ab9|a4484863] (10+07/24) Accurately ripped
14 [aac53856|1933cf84] (09+07/23) Accurately ripped
15 [40efa5e5|f2f05723] (10+06/23) Accurately ripped
Offsetted by -664:
01 [17d6e24f] (00/24) No match (V2 was not tested)
02 [d70c14df] (00/24) No match (V2 was not tested)
03 [20210f15] (00/24) No match (V2 was not tested)
04 [8faf36fb] (00/24) No match (V2 was not tested)
05 [b7515ebe] (00/23) No match (V2 was not tested)
06 [fc8851ce] (00/23) No match (V2 was not tested)
07 [a22ea0ef] (00/24) No match (V2 was not tested)
08 [cdaf3e9a] (00/23) No match (V2 was not tested)
09 [9da13d14] (00/23) No match (V2 was not tested)
10 [f8b4eef2] (00/24) No match (V2 was not tested)
11 [2cf2ae3e] (00/23) No match (V2 was not tested)
12 [9d9c72f5] (00/21) No match (V2 was not tested)
13 [3e718e33] (00/24) No match (V2 was not tested)
14 [f84f660b] (00/23) No match (V2 was not tested)
15 [f039ac2d] (00/23) No match (V2 was not tested)

Track Peak [ CRC32 ] [W/O NULL] [ LOG ]
– 100,0 [9E987246] [8390A323]
01 100,0 [1240D028] [6D305A07] CRC32
02 98,8 [896A51C3] [624AAA71] CRC32
03 98,8 [ED9BA615] [56E01BA1] CRC32
04 98,8 [DB6CB3CC] [2521961D] CRC32
05 98,8 [7CEC4987] [D53FC033] CRC32
06 98,8 [F5FCFD5A] [CDE227D1] CRC32
07 98,8 [BD635500] [A46DD4EB] CRC32
08 98,8 [32782670] [55781DCA] CRC32
09 98,8 [E8DE8D67] [1CAC4EF4] CRC32
10 98,8 [67081D22] [E3CA938F] CRC32
11 98,8 [7FA1D6BF] [C75BE16E] CRC32
12 98,8 [5A0C195F] [482F801E] CRC32
13 98,8 [51C8D383] [A6639A43] CRC32
14 98,8 [0DD0D035] [E920B2DF] CRC32
15 98,8 [78FA6935] [BB9F1FAB] CRC32

Thx to saintsmon

Ian Moss – Let's All Get Together (2007) Download, Warez, DDL, Free, Full Album, Torrent, Legal.

Download