I Solisti Italiani – Mendelssohn: Octet Op.20, Sinfonia No.6, 10 (2007) (Repost)

Download
I Solisti Italiani - Mendelssohn: Octet Op.20, Sinfonia No.6, 10 (2007) (Repost)

I Solisti Italiani – Mendelssohn: Octet Op.20, Sinfonia No.6, 10 (2007)
EAC | FLAC (image+.cue, log) | Covers Included | 58:15 | 329 MB
Genre: Classical | Label: DENON | Catalog: COCO-70889

I Solisti Veneti is one of the first rank of small Italian chamber orchestras with modern instruments. Founded in Padua in 1959 by Claudio Scimone, it has made a reputation especially with Italian Baroque music, recording many works by Antonio Vivaldi, Tomaso Albinoni, Francesco Geminiani, Benedetto Marcello and Giuseppe Tartini. Giuliano Carmignola and Piero Toso were two of the soloists in the ensemble. The group has made over 300 recordings, many on the Erato record label. A number of these were first-ever recordings of works of Vivaldi, Albinoni and Rossini.

AllMusic

I Solisti Italiani - Mendelssohn: Octet Op.20, Sinfonia No.6, 10 (2007) (Repost)

Track List:

Octet in E flat major Op.20
1. Allegro moderate, ma con fuoco
2. Andante
3. Scherzo; Allegro leggierissimo
4. Presto
Sinfonia (Symphony for Strings) No.6 in E-flat major
5. Allegro
6. Menuetto
7. Prestissimo
Sinfonia (Symphony for Strings) No.10 in В minor
8. Adagio-Allegro

Performers:
I Solisti Italiani

EAC Log
Exact Audio Copy V1.0 beta 3 from 29. August 2011

EAC extraction logfile from 22. December 2013, 11:58

Mendelssohn / Octet in E-Flat Major; Sinfonia No. 6 in E-Flat Major; Sinfonia No. 10 in B Minor (I Solisti Italiani)

Used drive : Optiarc DVD RW AD-7173A Adapter: 3 ID: 0

Read mode : Secure
Utilize accurate stream : Yes
Defeat audio cache : Yes
Make use of C2 pointers : No

Read offset correction : 48
Overread into Lead-In and Lead-Out : No
Fill up missing offset samples with silence : Yes
Delete leading and trailing silent blocks : No
Null samples used in CRC calculations : Yes
Used interface : Native Win32 interface for Win NT & 2000

Used output format : Internal WAV Routines
Sample format : 44.100 Hz; 16 Bit; Stereo

TOC of the extracted CD

Track | Start | Length | Start sector | End sector
––––––––––––––––––––––––––––-
1 | 0:00.00 | 15:00.15 | 0 | 67514
2 | 15:00.15 | 7:55.27 | 67515 | 103166
3 | 22:55.42 | 4:43.38 | 103167 | 124429
4 | 27:39.05 | 6:31.10 | 124430 | 153764
5 | 34:10.15 | 4:04.25 | 153765 | 172089
6 | 38:14.40 | 4:02.72 | 172090 | 190311
7 | 42:17.37 | 3:52.73 | 190312 | 207784
8 | 46:10.35 | 12:46.30 | 207785 | 265264

Range status and errors

Selected range

Filename C:Scanned1Mendelssohn – Octet in E-Flat Major; Sinfonia No. 6 in E-Flat Major; Sinfonia No. 10 in B Minor (I Solisti Italiani).wav

Peak level 94.5 %
Extraction speed 4.9 X
Range quality 100.0 %
Copy CRC 9EDCD209
Copy OK

No errors occurred

AccurateRip summary

Track 1 cannot be verified as accurate (confidence 1) [C2B796FD], AccurateRip returned [8B371909] (AR v2)
Track 2 cannot be verified as accurate (confidence 1) [75E4F065], AccurateRip returned [0D2572B3] (AR v2)
Track 3 cannot be verified as accurate (confidence 1) [177A623E], AccurateRip returned [F7F98CDA] (AR v2)
Track 4 cannot be verified as accurate (confidence 1) [8378E8CD], AccurateRip returned [D7075319] (AR v2)
Track 5 cannot be verified as accurate (confidence 1) [8E216A4E], AccurateRip returned [D5DDC113] (AR v2)
Track 6 cannot be verified as accurate (confidence 1) [AC973F95], AccurateRip returned [5084BDAB] (AR v2)
Track 7 cannot be verified as accurate (confidence 1) [47C23BC8], AccurateRip returned [923AE1B3] (AR v2)
Track 8 cannot be verified as accurate (confidence 1) [D9EBA049], AccurateRip returned [4444580A] (AR v2)

No tracks could be verified as accurate
You may have a different pressing from the one(s) in the database

End of status report

==== Log checksum 70CAC3634A18F22CA5B139CB36985CA6E5CABB9396E2514F94EB6912033BA3E4 ====

CUETools Log
[CUETools log; Date: 25.07.2017 10:18:21; Version: 2.1.5]
[CTDB TOCID: EeRJKaPO.jX0iTgkgkY695G8Nbs-] found.
Track | CTDB Status
1 | (10/10) Accurately ripped
2 | (10/10) Accurately ripped
3 | (10/10) Accurately ripped
4 | (10/10) Accurately ripped
5 | (10/10) Accurately ripped
6 | (10/10) Accurately ripped
7 | (10/10) Accurately ripped
8 | (10/10) Accurately ripped
[AccurateRip ID: 001398e9-007bfc1a-6e0dd008] found.
Track [ CRC | V2 ] Status
01 [dd34cd8c|c2b796fd] (0+0/3) No match
02 [2ff9f685|75e4f065] (0+0/3) No match
03 [d3d6b16b|177a623e] (0+0/3) No match
04 [1dceeb17|8378e8cd] (0+0/3) No match
05 [a12d5cf0|8e216a4e] (0+0/3) No match
06 [8a5e4b7e|ac973f95] (0+0/3) No match
07 [939d801f|47c23bc8] (0+0/3) No match
08 [d2e78d11|d9eba049] (0+0/3) No match
Offsetted by 664:
01 [e5dc7024] (0/3) No match (V2 was not tested)
02 [90f8385e] (0/3) No match (V2 was not tested)
03 [ab76cb52] (0/3) No match (V2 was not tested)
04 [be1848f3] (0/3) No match (V2 was not tested)
05 [9352c636] (0/3) No match (V2 was not tested)
06 [33571c65] (0/3) No match (V2 was not tested)
07 [a1062bda] (0/3) No match (V2 was not tested)
08 [d8e966b9] (0/3) No match (V2 was not tested)

Track Peak [ CRC32 ] [W/O NULL] [ LOG ]
– 94,5 [9EDCD209] [C7B218F4] CRC32
01 89,6 [BA6F3CEC] [3840D60E]
02 94,5 [D59087E8] [3117B8A8]
03 25,0 [D6F4B068] [515335BB]
04 91,2 [007BB6AE] [2EC2FEB8]
05 88,4 [37A50A0B] [D8646E37]
06 74,7 [39467B6E] [974275B5]
07 87,7 [DBFCBDAE] [92A3AC63]
08 91,3 [633AA83A] [EB10612E]

Thanks to the Original ripper unrotten!

Download:

I Solisti Italiani – Mendelssohn: Octet Op.20, Sinfonia No.6, 10 (2007) (Repost) Download, Warez, DDL, Free, Full Album, Torrent, Legal.

Download