Hungarian NPO, Zoltan Kocsis, Julia Hajnoczy – Orchestrations by Zoltan Kocsis of works by Debussy and Ravel (2003)

Download
Hungarian NPO, Zoltan Kocsis, Julia Hajnoczy - Orchestrations by Zoltan Kocsis of works by Debussy and Ravel (2003)

Orchestrations by Zoltán Kocsis of works by Claude Debussy and Maurice Ravel (2003)
Hungarian National Philharmonic Orchestra, Zoltán Kocsis; Júlia Hajnóczy, soprano

XLD | FLAC | Tracks (Cue&Log) ~ 243 Mb | Mp3 (CBR320) ~ 164 Mb | Scans included
Genre: Classical | Label: Hungaroton | # HCD32106 | Time: 01:09:55

If anybody is, then Zoltán Kocsis is truly a musical artist in the Renaissance sense: he explores ever greater areas of his profession, and takes possession of new realms. Initially, we looked on with incomprehension, asking why as a pianist of genius, he did not devote himself exclusively to his instrument. Why was he dissipating his creative energies is so many fields: teaching, conducting, writing essays, creating concert programs, forming societies and building an orchestra – and of course, there was his composition as well. But these days, we really have to acknowledge that with Kocsis, this is not some sporting achievement, but utilising the Wagnerian term – a kind of “Gesamtkunstwerk” activity. We can analyse and criticise it – precisely as we can his pianistic productions – but to query it is certainly impermissible.

At his concerts these days, we experience increasingly frequently that during the course of a single evening, Kocsis will present two or three of his faces to the audience: as conductor, instrumental soloist and author of orchestral versions of 20th century masterpieces. Alas, we can still not hope to find in the shops his CD of superb Bartók orchestrations, since the wrangling over copyright questions remains unresolved. However, his recording of Debussy and Ravel compositions for the Hungaroton firm is now available, and we have every reason to presume that when it is distributed abroad it will create a sensation. The seventy minutes-worth of compositions on this CD are not espied as part of the chamber music treasury, but with Kocsis’s co-operation as a co-author, have now written their names into the golden pages of the orchestral literature. It is my firm conviction that Kocsis’s orchestration of, for example, the Debussy cycle of Verlaine verses (Ariettes Oubliées) is no less important an event than when Ravel launched the international career of Mussorgsky’s piano composition Pictures at an Exhibition through his congenial orchestration. After all, the Ariettes Oubliées are exceptionally beautiful, secretive and enchanting works, which in their original form – probably because of the extreme demands of the piano accompaniment – are only heard tucked away at chamber music recitals. Now however, in the performance of the sensuous soprano voice (Júlia Hajnóczy), full of suggestivity, vibrancy and tension, sensuously entwining itself with the transparent texture of the orchestral accompaniment, we encounter them as a revelation and hope that orchestral ensembles intending to expand their Debussy repertoire will seize upon them. The disarming achievement of the National Philharmonic Orchestra communicates itself as joyous music making; in this song cycle, in the Ravel original works and those that Kocsis arranges, and in the Debussy works that Kocsis orchestrates: Marché Écossaise, Danse, Images (Oubliées). Kocsis also takes into hand some Ravel works: besides the Menuet Antique, Kocsis’s most astounding orchestrating bravura is reserved for his reworking for orchestra of those movements from Ravel’s Tombeau de Couperin, which the composer himself did not attempt to rewrite. At first glance, this seems like astounding daring, but listening to the end result, I can only say that it makes for an imposing co-production.

Review by Mária Kerényi, Gramofon (Hungarian magazine, Summer 2003)

For me (and, I think, for seasoned collectors), the interest of this disc lies in conductor Zoltan Kocsis’ own orchestrations of Debussy and Ravel. Most collectors will probably already have other recordings of the "standard" orchestrations by the composers themselves–"Marche ecosaisse", "Menuet antique" and movements 1, 3, 4, and 5 of "Tombeau de Couperin". With some exceptions, Kocsis’ orchestrations fit in rather well with these, and are done with taste, high professional skill, and stylistic knowledge.

The "Marche ecosaisse" comes off well, with suitable brio. Unfortunately, "Danse" is MUCH too fast and frenzied (Geoffrey Simon’s is my current favorite). Debussy’s tempo marking is only "Allegretto" qualified by "very light". The "Menuet antique" too, seems heavy-handed.

Kocsis’ orchestration of the song-cycle "Ariettes oubliees" is lovingly done, although perhaps "Spleen" is too aggressively brassy for Debussy. Again, the tempo for "Chevaux de bois" seems driven, and soprano Julia Hajnoczy sometimes has problems snatching opportunities for breath, understandable at this tempo. Hajnoczy’s performance is quite pleasant, although her white-toned voice lacks color and personality.

Review by Dace Gisclard, Amazon.com

Hungarian NPO, Zoltan Kocsis, Julia Hajnoczy - Orchestrations by Zoltan Kocsis of works by Debussy and Ravel (2003)

Hungarian NPO, Zoltan Kocsis, Julia Hajnoczy - Orchestrations by Zoltan Kocsis of works by Debussy and Ravel (2003)

Zoltán Kocsis at Allmusic
Zoltán Kocsis at Wiki

Hungarian National Philharmonic Orchestra
Zoltán Kocsis, conductor
Júlia Hajnóczy, soprano (3-8)

Recorded 12-14 Sept./14 Oct. 2001 & 13 Sept. 2002, Budapest Italian Institute

Tracklist:

Claude Debussy (1862-1918)

01. Marche écossaise L. 77 [orch. Zoltán Kocsis] (5:48)

02. Danse (Tarantelle styrienne) L. 69 [orch. Zoltán Kocsis] (4:51)

Ariettes oubliées L. 60 [orch. Zoltán Kocsis]:
03. I. C’est l’extase langoureuse (2:52)
04. II. Il pleure dans mon cœur (2:23)
05. III. L’ombre des arbres (2:14)
06. IV. Paysages belges. Chevaux de bois (2:31)
07. V. Aquarelles I. Green (1:35)
08. VI. Aquarelles II. Spleen (2:33)

Images [oubliées] L. 87:
09. I. Lent (Mélancolique et doux) [orch. Zoltán Kocsis] (3:35)
10. II. Sarabande. Avec une élégance grave et lente [orch. Maurice Ravel] (5:05)
11. III. Quelques aspects de "Nous n’irons plus au bois"
parce qu’il fait un temps insupportable. Très vite [orch. Zoltán Kocsis] (4:34)

Maurice Ravel (1875-1937)

12. Menuet antique Op. 7. Maestoso [orch. Zoltán Kocsis] (7:17)

Le tombeau de Couperin Op. 68a:
13. I. Prélude. Vif [orch. Maurice Ravel] (3:12)
14. II. Fugue. Allegro moderato [orch. Zoltán Kocsis] (3:12)
15. III. Forlane. Allegretto [orch. Maurice Ravel] (6:03)
16. IV. Rigaudon. Assez vif [orch. Maurice Ravel] (3:01)
17. V. Menuet. Allegretto moderato [orch. Maurice Ravel] (5:11)
18. VI. Toccata. Vif [orch. Zoltán Kocsis] (3:59)

XLD log
X Lossless Decoder version 20161007 (149.3)

XLD extraction logfile from 2017-07-07 12:13:14 +0200

ZoltaМЃn Kocsis/Hungarian National Philharmonic Orchestra/JuМЃlia HajnoМЃczy / Orchestrations by ZoltaМЃn Kocsis of works by Debussy and Ravel – JuМЃlia HajnoМЃczy, soprano • Hungarian National Philharmonic Orchestra conducted by ZoltaМЃn Kocsis [Hungaroton]

Used drive : TSSTcorp CDDVDW SE-S084D (revision TS01)
Media type : Pressed CD

Ripper mode : XLD Secure Ripper
Disable audio cache : OK for the drive with a cache less than 1375KiB
Make use of C2 pointers : NO
Read offset correction : 6
Max retry count : 100
Gap status : Analyzed, Appended (except HTOA)

TOC of the extracted CD
Track | Start | Length | Start sector | End sector
––––––––––––––––––––––––––––-
1 | 00:00:00 | 05:48:32 | 0 | 26131
2 | 05:48:32 | 04:50:50 | 26132 | 47931
3 | 10:39:07 | 02:51:73 | 47932 | 60829
4 | 13:31:05 | 02:22:57 | 60830 | 71536
5 | 15:53:62 | 02:14:33 | 71537 | 81619
6 | 18:08:20 | 02:30:57 | 81620 | 92926
7 | 20:39:02 | 01:34:55 | 92927 | 100031
8 | 22:13:57 | 02:32:38 | 100032 | 111469
9 | 24:46:20 | 03:35:30 | 111470 | 127624
10 | 28:21:50 | 05:04:60 | 127625 | 150484
11 | 33:26:35 | 04:33:40 | 150485 | 170999
12 | 38:00:00 | 07:16:65 | 171000 | 203764
13 | 45:16:65 | 03:12:12 | 203765 | 218176
14 | 48:29:02 | 03:12:35 | 218177 | 232611
15 | 51:41:37 | 06:03:05 | 232612 | 259841
16 | 57:44:42 | 03:00:63 | 259842 | 273404
17 | 60:45:30 | 05:10:55 | 273405 | 296709
18 | 65:56:10 | 03:59:05 | 296710 | 314639

AccurateRip Summary (DiscID: 002b58a5-0244769e-f0106312)
Track 01 : OK (v2, confidence 2/2)
Track 02 : OK (v2, confidence 2/2)
Track 03 : OK (v2, confidence 2/2)
Track 04 : OK (v2, confidence 2/2)
Track 05 : OK (v2, confidence 2/2)
Track 06 : OK (v2, confidence 2/2)
Track 07 : OK (v2, confidence 2/2)
Track 08 : OK (v2, confidence 2/2)
Track 09 : OK (v2, confidence 2/2)
Track 10 : OK (v2, confidence 2/2)
Track 11 : OK (v2, confidence 2/2)
Track 12 : OK (v2, confidence 2/2)
Track 13 : OK (v2, confidence 2/2)
Track 14 : OK (v2, confidence 2/2)
Track 15 : OK (v2, confidence 2/2)
Track 16 : OK (v2, confidence 2/2)
Track 17 : OK (v2, confidence 2/2)
Track 18 : OK (v2, confidence 2/2)
->All tracks accurately ripped.

All Tracks
Album gain : 1.44 dB
Peak : 0.999908
Statistics
Read error : 0
Jitter error (maybe fixed) : 0
Retry sector count : 0
Damaged sector count : 0

Track 01
Filename : /Orchestrations by ZoltaМЃn Kocsis of works by Debussy and Ravel – JuМЃlia HajnoМЃczy, soprano • Hungarian National Philharmonic Orchestra conducted by ZoltaМЃn Kocsis [Hungaroton]/01 Marche Г©cossaise L. 77 [orch. ZoltaМЃn Kocsis].flac
Pre-gap length : 00:02:00

Track gain : 0.11 dB
Peak : 0.999908
CRC32 hash (test run) : 7B026917
CRC32 hash : 7B026917
CRC32 hash (skip zero) : 379166F4
AccurateRip v1 signature : 89D0EA08
AccurateRip v2 signature : 4A8FF002
->Accurately ripped (v2, confidence 2/2)
Statistics
Read error : 0
Jitter error (maybe fixed) : 0
Retry sector count : 0
Damaged sector count : 0

Track 02
Filename : /Orchestrations by ZoltaМЃn Kocsis of works by Debussy and Ravel – JuМЃlia HajnoМЃczy, soprano • Hungarian National Philharmonic Orchestra conducted by ZoltaМЃn Kocsis [Hungaroton]/02 Danse (Tarantelle styrienne) L. 69 [orch. ZoltaМЃn Kocsis].flac
Pre-gap length : 00:03:27

Track gain : 1.66 dB
Peak : 0.818939
CRC32 hash (test run) : 132DA997
CRC32 hash : 132DA997
CRC32 hash (skip zero) : EEF25DC3
AccurateRip v1 signature : 0FA86CEE
AccurateRip v2 signature : 7231A7C7
->Accurately ripped (v2, confidence 2/2)
Statistics
Read error : 0
Jitter error (maybe fixed) : 0
Retry sector count : 0
Damaged sector count : 0

Track 03
Filename : /Orchestrations by ZoltaМЃn Kocsis of works by Debussy and Ravel – JuМЃlia HajnoМЃczy, soprano • Hungarian National Philharmonic Orchestra conducted by ZoltaМЃn Kocsis [Hungaroton]/03 Ariettes oubliГ©es L. 60 [orch. ZoltaМЃn Kocsis]пјљ I. C’est l’extase langoureuse.flac
Pre-gap length : 00:03:70

Track gain : 4.55 dB
Peak : 0.507019
CRC32 hash (test run) : 566A7C04
CRC32 hash : 566A7C04
CRC32 hash (skip zero) : BCDD745A
AccurateRip v1 signature : CD77E13E
AccurateRip v2 signature : 8DBF33EA
->Accurately ripped (v2, confidence 2/2)
Statistics
Read error : 0
Jitter error (maybe fixed) : 0
Retry sector count : 0
Damaged sector count : 0

Track 04
Filename : /Orchestrations by ZoltaМЃn Kocsis of works by Debussy and Ravel – JuМЃlia HajnoМЃczy, soprano • Hungarian National Philharmonic Orchestra conducted by ZoltaМЃn Kocsis [Hungaroton]/04 Ariettes oubliГ©es L. 60 [orch. ZoltaМЃn Kocsis]пјљ II. Il pleure dans mon cЕ“ur.flac

Track gain : 7.88 dB
Peak : 0.350739
CRC32 hash (test run) : 955A0A78
CRC32 hash : 955A0A78
CRC32 hash (skip zero) : 290E543C
AccurateRip v1 signature : C577973A
AccurateRip v2 signature : 42C0C8CB
->Accurately ripped (v2, confidence 2/2)
Statistics
Read error : 0
Jitter error (maybe fixed) : 0
Retry sector count : 0
Damaged sector count : 0

Track 05
Filename : /Orchestrations by ZoltaМЃn Kocsis of works by Debussy and Ravel – JuМЃlia HajnoМЃczy, soprano • Hungarian National Philharmonic Orchestra conducted by ZoltaМЃn Kocsis [Hungaroton]/05 Ariettes oubliГ©es L. 60 [orch. ZoltaМЃn Kocsis]пјљ III. L’ombre des arbres.flac

Track gain : 4.70 dB
Peak : 0.558472
CRC32 hash (test run) : 6589B618
CRC32 hash : 6589B618
CRC32 hash (skip zero) : 70073816
AccurateRip v1 signature : 6D49429A
AccurateRip v2 signature : 56EAB54E
->Accurately ripped (v2, confidence 2/2)
Statistics
Read error : 0
Jitter error (maybe fixed) : 0
Retry sector count : 0
Damaged sector count : 0

Track 06
Filename : /Orchestrations by ZoltaМЃn Kocsis of works by Debussy and Ravel – JuМЃlia HajnoМЃczy, soprano • Hungarian National Philharmonic Orchestra conducted by ZoltaМЃn Kocsis [Hungaroton]/06 Ariettes oubliГ©es L. 60 [orch. ZoltaМЃn Kocsis]пјљ IV. Paysages belges. Chevaux de bois.flac
Pre-gap length : 00:02:68

Track gain : 0.10 dB
Peak : 0.976501
CRC32 hash (test run) : 15B56FC2
CRC32 hash : 15B56FC2
CRC32 hash (skip zero) : F861749F
AccurateRip v1 signature : 6C95290A
AccurateRip v2 signature : 8C104D09
->Accurately ripped (v2, confidence 2/2)
Statistics
Read error : 0
Jitter error (maybe fixed) : 0
Retry sector count : 0
Damaged sector count : 0

Track 07
Filename : /Orchestrations by ZoltaМЃn Kocsis of works by Debussy and Ravel – JuМЃlia HajnoМЃczy, soprano • Hungarian National Philharmonic Orchestra conducted by ZoltaМЃn Kocsis [Hungaroton]/07 Ariettes oubliГ©es L. 60 [orch. ZoltaМЃn Kocsis]пјљ V. Aquarelles I. Green.flac

Track gain : 5.39 dB
Peak : 0.417664
CRC32 hash (test run) : C7096153
CRC32 hash : C7096153
CRC32 hash (skip zero) : 345F2F89
AccurateRip v1 signature : F1BE5096
AccurateRip v2 signature : 585060A6
->Accurately ripped (v2, confidence 2/2)
Statistics
Read error : 0
Jitter error (maybe fixed) : 0
Retry sector count : 0
Damaged sector count : 0

Track 08
Filename : /Orchestrations by ZoltaМЃn Kocsis of works by Debussy and Ravel – JuМЃlia HajnoМЃczy, soprano • Hungarian National Philharmonic Orchestra conducted by ZoltaМЃn Kocsis [Hungaroton]/08 Ariettes oubliГ©es L. 60 [orch. ZoltaМЃn Kocsis]пјљ VI. Aquarelles II. Spleen.flac

Track gain : -1.21 dB
Peak : 0.891174
CRC32 hash (test run) : DFB205D2
CRC32 hash : DFB205D2
CRC32 hash (skip zero) : F67D05C2
AccurateRip v1 signature : 4C8B5105
AccurateRip v2 signature : D4E0E111
->Accurately ripped (v2, confidence 2/2)
Statistics
Read error : 0
Jitter error (maybe fixed) : 0
Retry sector count : 0
Damaged sector count : 0

Track 09
Filename : /Orchestrations by ZoltaМЃn Kocsis of works by Debussy and Ravel – JuМЃlia HajnoМЃczy, soprano • Hungarian National Philharmonic Orchestra conducted by ZoltaМЃn Kocsis [Hungaroton]/09 Images [oubliГ©es] L. 87пјљ I. Lent (MГ©lancolique et doux) [orch. ZoltaМЃn Kocsis].flac
Pre-gap length : 00:07:68

Track gain : 4.02 dB
Peak : 0.499908
CRC32 hash (test run) : 29D39B1B
CRC32 hash : 29D39B1B
CRC32 hash (skip zero) : 0EC0CEE7
AccurateRip v1 signature : 8C418E97
AccurateRip v2 signature : 756FBFC3
->Accurately ripped (v2, confidence 2/2)
Statistics
Read error : 0
Jitter error (maybe fixed) : 0
Retry sector count : 0
Damaged sector count : 0

Track 10
Filename : /Orchestrations by ZoltaМЃn Kocsis of works by Debussy and Ravel – JuМЃlia HajnoМЃczy, soprano • Hungarian National Philharmonic Orchestra conducted by ZoltaМЃn Kocsis [Hungaroton]/10 Images [oubliГ©es] L. 87пјљ II. Sarabande. Avec une Г©lГ©gance grave et lente [orch. Maurice Ravel].flac
Pre-gap length : 00:05:73

Track gain : 4.52 dB
Peak : 0.573608
CRC32 hash (test run) : 8AF0F7E8
CRC32 hash : 8AF0F7E8
CRC32 hash (skip zero) : 99C52364
AccurateRip v1 signature : 5952B864
AccurateRip v2 signature : D7AF32DA
->Accurately ripped (v2, confidence 2/2)
Statistics
Read error : 0
Jitter error (maybe fixed) : 0
Retry sector count : 0
Damaged sector count : 0

Track 11
Filename : /Orchestrations by ZoltaМЃn Kocsis of works by Debussy and Ravel – JuМЃlia HajnoМЃczy, soprano • Hungarian National Philharmonic Orchestra conducted by ZoltaМЃn Kocsis [Hungaroton]/11 Images [oubliГ©es] L. 87пјљ III. Quelques aspects de ”Nous n’irons plus au bois” parce qu’il fait un temps insupportable. TrГЁs vite [orch. ZoltaМЃn Kocsis].flac

Track gain : -3.50 dB
Peak : 0.831787
CRC32 hash (test run) : CF299AE3
CRC32 hash : CF299AE3
CRC32 hash (skip zero) : 21A23331
AccurateRip v1 signature : 63F15EDE
AccurateRip v2 signature : 66B98FA7
->Accurately ripped (v2, confidence 2/2)
Statistics
Read error : 0
Jitter error (maybe fixed) : 0
Retry sector count : 0
Damaged sector count : 0

Track 12
Filename : /Orchestrations by ZoltaМЃn Kocsis of works by Debussy and Ravel – JuМЃlia HajnoМЃczy, soprano • Hungarian National Philharmonic Orchestra conducted by ZoltaМЃn Kocsis [Hungaroton]/12 Menuet antique Op. 7. Maestoso [orch. ZoltaМЃn Kocsis].flac
Pre-gap length : 00:06:33

Track gain : 1.52 dB
Peak : 0.988281
CRC32 hash (test run) : 9F85D4C0
CRC32 hash : 9F85D4C0
CRC32 hash (skip zero) : 22F27C76
AccurateRip v1 signature : 29B2E9E2
AccurateRip v2 signature : 273FB624
->Accurately ripped (v2, confidence 2/2)
Statistics
Read error : 0
Jitter error (maybe fixed) : 0
Retry sector count : 0
Damaged sector count : 0

Track 13
Filename : /Orchestrations by ZoltaМЃn Kocsis of works by Debussy and Ravel – JuМЃlia HajnoМЃczy, soprano • Hungarian National Philharmonic Orchestra conducted by ZoltaМЃn Kocsis [Hungaroton]/13 Le tombeau de Couperin Op. 68aпјљ I. PrГ©lude. Vif [orch. Maurice Ravel].flac
Pre-gap length : 00:03:74

Track gain : 2.91 dB
Peak : 0.654205
CRC32 hash (test run) : AA470D79
CRC32 hash : AA470D79
CRC32 hash (skip zero) : B5EDF29E
AccurateRip v1 signature : AC785936
AccurateRip v2 signature : 997C1C7D
->Accurately ripped (v2, confidence 2/2)
Statistics
Read error : 0
Jitter error (maybe fixed) : 0
Retry sector count : 0
Damaged sector count : 0

Track 14
Filename : /Orchestrations by ZoltaМЃn Kocsis of works by Debussy and Ravel – JuМЃlia HajnoМЃczy, soprano • Hungarian National Philharmonic Orchestra conducted by ZoltaМЃn Kocsis [Hungaroton]/14 Le tombeau de Couperin Op. 68aпјљ II. Fugue. Allegro moderato [orch. ZoltГЎn Kocsis].flac

Track gain : 10.71 dB
Peak : 0.360504
CRC32 hash (test run) : 57971448
CRC32 hash : 57971448
CRC32 hash (skip zero) : AEEF0033
AccurateRip v1 signature : 1EE69D17
AccurateRip v2 signature : EA0DF708
->Accurately ripped (v2, confidence 2/2)
Statistics
Read error : 0
Jitter error (maybe fixed) : 0
Retry sector count : 0
Damaged sector count : 0

Track 15
Filename : /Orchestrations by ZoltaМЃn Kocsis of works by Debussy and Ravel – JuМЃlia HajnoМЃczy, soprano • Hungarian National Philharmonic Orchestra conducted by ZoltaМЃn Kocsis [Hungaroton]/15 Le tombeau de Couperin Op. 68aпјљ III. Forlane. Allegretto [orch. Maurice Ravel].flac
Pre-gap length : 00:02:03

Track gain : 10.87 dB
Peak : 0.297211
CRC32 hash (test run) : 694AFA8B
CRC32 hash : 694AFA8B
CRC32 hash (skip zero) : 28250920
AccurateRip v1 signature : 00B3218A
AccurateRip v2 signature : 8BD55BA0
->Accurately ripped (v2, confidence 2/2)
Statistics
Read error : 0
Jitter error (maybe fixed) : 0
Retry sector count : 0
Damaged sector count : 0

Track 16
Filename : /Orchestrations by ZoltaМЃn Kocsis of works by Debussy and Ravel – JuМЃlia HajnoМЃczy, soprano • Hungarian National Philharmonic Orchestra conducted by ZoltaМЃn Kocsis [Hungaroton]/16 Le tombeau de Couperin Op. 68aпјљ IV. Rigaudon. Assez vif [orch. Maurice Ravel].flac

Track gain : 2.60 dB
Peak : 0.731354
CRC32 hash (test run) : 2248342F
CRC32 hash : 2248342F
CRC32 hash (skip zero) : 896E3D46
AccurateRip v1 signature : 690324CC
AccurateRip v2 signature : 223518A5
->Accurately ripped (v2, confidence 2/2)
Statistics
Read error : 0
Jitter error (maybe fixed) : 0
Retry sector count : 0
Damaged sector count : 0

Track 17
Filename : /Orchestrations by ZoltaМЃn Kocsis of works by Debussy and Ravel – JuМЃlia HajnoМЃczy, soprano • Hungarian National Philharmonic Orchestra conducted by ZoltaМЃn Kocsis [Hungaroton]/17 Le tombeau de Couperin Op. 68aпјљ V. Menuet. Allegretto moderato [orch. Maurice Ravel].flac

Track gain : 8.89 dB
Peak : 0.490906
CRC32 hash (test run) : 4641C14F
CRC32 hash : 4641C14F
CRC32 hash (skip zero) : E5C99E14
AccurateRip v1 signature : FAAE928B
AccurateRip v2 signature : 9E81858B
->Accurately ripped (v2, confidence 2/2)
Statistics
Read error : 0
Jitter error (maybe fixed) : 0
Retry sector count : 0
Damaged sector count : 0

Track 18
Filename : /Orchestrations by ZoltaМЃn Kocsis of works by Debussy and Ravel – JuМЃlia HajnoМЃczy, soprano • Hungarian National Philharmonic Orchestra conducted by ZoltaМЃn Kocsis [Hungaroton]/18 Le tombeau de Couperin Op. 68aпјљ VI. Toccata. Vif [orch. ZoltГЎn Kocsis].flac

Track gain : -2.81 dB
Peak : 0.999817
CRC32 hash (test run) : F5EBDB4B
CRC32 hash : F5EBDB4B
CRC32 hash (skip zero) : 368C1CF6
AccurateRip v1 signature : F1A14A4E
AccurateRip v2 signature : 74DA1A28
->Accurately ripped (v2, confidence 2/2)
Statistics
Read error : 0
Jitter error (maybe fixed) : 0
Retry sector count : 0
Damaged sector count : 0

No errors occurred

End of status report

––-BEGIN XLD SIGNATURE––-
3WyBWXSh8c75nZp8U6nrOBbMryWd5hCngHtx7lpceSyGc0WmZ6egK5CcMFwmC0K43BgOJjqDb4j15fy3x9m3N_un5UrhL63xyPvU5kS
––-END XLD SIGNATURE––-

AR log
[CUETools log; Date: 15.07.2017 19:52:45; Version: 2.1.4]
[CTDB TOCID: wVKwJVDEF1PC7C37vTSQ4JJa0S8-] found.
Track | CTDB Status
1 | (4/4) Accurately ripped
2 | (4/4) Accurately ripped
3 | (4/4) Accurately ripped
4 | (4/4) Accurately ripped
5 | (4/4) Accurately ripped
6 | (4/4) Accurately ripped
7 | (4/4) Accurately ripped
8 | (4/4) Accurately ripped
9 | (4/4) Accurately ripped
10 | (4/4) Accurately ripped
11 | (4/4) Accurately ripped
12 | (4/4) Accurately ripped
13 | (4/4) Accurately ripped
14 | (4/4) Accurately ripped
15 | (4/4) Accurately ripped
16 | (4/4) Accurately ripped
17 | (4/4) Accurately ripped
18 | (4/4) Accurately ripped
[AccurateRip ID: 002b58a5-0244769e-f0106312] found.
Track [ CRC | V2 ] Status
01 [89d0ea08|4a8ff002] (0+2/2) Accurately ripped
02 [0fa86cee|7231a7c7] (0+2/2) Accurately ripped
03 [cd77e13e|8dbf33ea] (0+2/2) Accurately ripped
04 [c577973a|42c0c8cb] (0+2/2) Accurately ripped
05 [6d49429a|56eab54e] (0+2/2) Accurately ripped
06 [6c95290a|8c104d09] (0+2/2) Accurately ripped
07 [f1be5096|585060a6] (0+2/2) Accurately ripped
08 [4c8b5105|d4e0e111] (0+2/2) Accurately ripped
09 [8c418e97|756fbfc3] (0+2/2) Accurately ripped
10 [5952b864|d7af32da] (0+2/2) Accurately ripped
11 [63f15ede|66b98fa7] (0+2/2) Accurately ripped
12 [29b2e9e2|273fb624] (0+2/2) Accurately ripped
13 [ac785936|997c1c7d] (0+2/2) Accurately ripped
14 [1ee69d17|ea0df708] (0+2/2) Accurately ripped
15 [00b3218a|8bd55ba0] (0+2/2) Accurately ripped
16 [690324cc|223518a5] (0+2/2) Accurately ripped
17 [faae928b|9e81858b] (0+2/2) Accurately ripped
18 [f1a14a4e|74da1a28] (0+2/2) Accurately ripped

Track Peak [ CRC32 ] [W/O NULL]
– 99,9 [50B05C81] [F1321D03]
01 99,9 [7B026917] [379166F4]
02 81,8 [132DA997] [EEF25DC3]
03 50,7 [566A7C04] [BCDD745A]
04 35,0 [955A0A78] [290E543C]
05 55,8 [6589B618] [70073816]
06 97,6 [15B56FC2] [F861749F]
07 41,7 [C7096153] [345F2F89]
08 89,1 [DFB205D2] [F67D05C2]
09 49,9 [29D39B1B] [0EC0CEE7]
10 57,3 [8AF0F7E8] [99C52364]
11 83,1 [CF299AE3] [21A23331]
12 98,8 [9F85D4C0] [22F27C76]
13 65,4 [AA470D79] [B5EDF29E]
14 36,0 [57971448] [AEEF0033]
15 29,7 [694AFA8B] [28250920]
16 73,1 [2248342F] [896E3D46]
17 49,0 [4641C14F] [E5C99E14]
18 99,9 [F5EBDB4B] [368C1CF6]

DR log
foobar2000 1.2 / Dynamic Range Meter 1.1.1
log date: 2017-07-15 20:27:31

––––––––––––––––––––––––––––––––––––––––
Analyzed: Júlia Hajnóczy/Zoltán Kocsis/Hungarian National Philharmonic Orchestra / Orchestrations by Zoltán Kocsis of works by Debussy and Ravel – Júlia Hajnóczy, soprano • Hungarian National Philharmonic Orchestra conducted by Zoltán Kocsis [Hungaroton] (1-6)
Zoltán Kocsis/Hungarian National Philharmonic Orchestra / Orchestrations by Zoltán Kocsis of works by Debussy and Ravel – Júlia Hajnóczy, soprano • Hungarian National Philharmonic Orchestra conducted by Zoltán Kocsis [Hungaroton] (7-18)
––––––––––––––––––––––––––––––––––––––––

DR Peak RMS Duration Track
––––––––––––––––––––––––––––––––––––––––
DR12 -5.90 dB -26.16 dB 2:52 03-Ariettes oubliées L. 60 [orch. Zoltán Kocsis]: I. C’est l’extase langoureuse
DR12 -9.10 dB -28.75 dB 2:23 04-Ariettes oubliées L. 60 [orch. Zoltán Kocsis]: II. Il pleure dans mon cœur
DR12 -5.06 dB -26.64 dB 2:14 05-Ariettes oubliées L. 60 [orch. Zoltán Kocsis]: III. L’ombre des arbres
DR15 -0.21 dB -21.83 dB 2:31 06-Ariettes oubliées L. 60 [orch. Zoltán Kocsis]: IV. Paysages belges. Chevaux de bois
DR14 -7.58 dB -26.52 dB 1:35 07-Ariettes oubliées L. 60 [orch. Zoltán Kocsis]: V. Aquarelles I. Green
DR11 -1.00 dB -20.64 dB 2:33 08-Ariettes oubliées L. 60 [orch. Zoltán Kocsis]: VI. Aquarelles II. Spleen
DR15 0.00 dB -21.96 dB 5:48 01-Marche écossaise L. 77 [orch. Zoltán Kocsis]
DR14 -1.73 dB -23.84 dB 4:51 02-Danse (Tarantelle styrienne) L. 69 [orch. Zoltán Kocsis]
DR13 -6.02 dB -25.94 dB 3:35 09-Images [oubliées] L. 87: I. Lent (Mélancolique et doux) [orch. Zoltán Kocsis]
DR14 -4.83 dB -26.81 dB 5:05 10-Images [oubliées] L. 87: II. Sarabande. Avec une élégance grave et lente [orch. Maurice Ravel]
DR11 -1.60 dB -19.23 dB 4:34 11-Images [oubliées] L. 87: III. Quelques aspects de "Nous n’irons plus au bois" parce qu’il fait un temps insupportable. Très vite [orch. Zoltán Kocsis]
DR16 -0.10 dB -22.76 dB 7:17 12-Menuet antique Op. 7. Maestoso [orch. Zoltán Kocsis]
DR14 -3.69 dB -24.81 dB 3:12 13-Le tombeau de Couperin Op. 68a: I. Prélude. Vif [orch. Maurice Ravel]
DR13 -8.86 dB -29.80 dB 3:12 14-Le tombeau de Couperin Op. 68a: II. Fugue. Allegro moderato [orch. Zoltán Kocsis]
DR15 -10.54 dB -30.51 dB 6:03 15-Le tombeau de Couperin Op. 68a: III. Forlane. Allegretto [orch. Maurice Ravel]
DR15 -2.72 dB -24.23 dB 3:01 16-Le tombeau de Couperin Op. 68a: IV. Rigaudon. Assez vif [orch. Maurice Ravel]
DR15 -6.18 dB -29.59 dB 5:11 17-Le tombeau de Couperin Op. 68a: V. Menuet. Allegretto moderato [orch. Maurice Ravel]
DR13 0.00 dB -18.89 dB 3:59 18-Le tombeau de Couperin Op. 68a: VI. Toccata. Vif [orch. Zoltán Kocsis]
––––––––––––––––––––––––––––––––––––––––

Number of tracks: 18
Official DR value: DR14

Samplerate: 44100 Hz
Channels: 2
Bits per sample: 16
Bitrate: 585 kbps
Codec: FLAC
================================================================================

Hungarian NPO, Zoltan Kocsis, Julia Hajnoczy - Orchestrations by Zoltan Kocsis of works by Debussy and Ravel (2003)

Hungarian NPO, Zoltan Kocsis, Julia Hajnoczy - Orchestrations by Zoltan Kocsis of works by Debussy and Ravel (2003)

All thanks to original releaser

More interesting music in My Blog

Hungarian NPO, Zoltan Kocsis, Julia Hajnoczy – Orchestrations by Zoltan Kocsis of works by Debussy and Ravel (2003) Download, Warez, DDL, Free, Full Album, Torrent, Legal.

Download