Horse Thief – Trials & Truths (2017) {Bella Union}

Download
Horse Thief - Trials & Truths (2017) {Bella Union}

Horse Thief – Trials & Truths (2017)
EAC Rip | FLAC (tracks+.cue, log) | Front cover only | 226 mb | MP3 CBR 320kbps | RAR | 87 mb
Rock, Indie, Alternative | Label: Bella Union – Bella553

Trials and Truths, Horse Thief’s second album, is a solid set of easygoing, straightforward rock. Every song is good, a couple of them are better, and the band manages to come up with a handful of catchy riffs and choruses.

Picking up where their 2014 debut with Bella Union left off, Trials & Truths is the second long-player by Oklahoma City-based Horse Thief. It reunites the quintet’s tumbleweed-shaded psych-pop with Fear in Bliss producer Thom Monahan, whose résumé includes the likes of Devendra Banhart, Wild Nothing, and Fruit Bats. For Horse Thief, he seems to give shape to their sprawling guitar textures while leaving enough shimmer to transport listeners out of bedroom headphones, through flues, into dusty expanses. The album was informed by a long 18 months on the road together, and allowed more time for writing and recording than they’d had with their debut. A balance of sound and songcraft, it mixes hooky and delicate melodies that carry lyrics about relationships, places, and sorting through any related memories. The song "Mountain Town" begins with the sound of songbirds before melodic lead guitar kicks in over acoustic guitar jangle. Frontman Cameron Neal, who wrote the song while visiting family in Colorado, sings of a past romance that’s attached to particular light, shadows, and "scattering patterns." Elsewhere, "Falling for You" has organ, a wailing guitar line, and clanking rhythms among its palette, all under vocals that are sharp and clear in contrast, as if narrating. Uptempo standout "Another Youth" features an arrangement of syncopated polyrhythms that lead into a stuttering vocal line. Guitars glisten with a warm atmosphere that’s fleshed out by humming synths, capturing the spirit of flora, fauna, and the horizon despite a new wavy approach. Later, the stripped-down "Million Dollars" brings a Western drawl and pedal steel to the scene. Overall a tweaked follow-up that’s likely to bring along existing fans, Trials & Truths is like a puffy chair with a window view; it doesn’t demand attention but offers thoughtful escape.

AllMusic Review by Marcy Donelson

Tracklist:

01. Another Youth (04:21)
02. Difference (02:36)
03. Drowsy (03:03)
04. Empire (04:12)
05. Falling for You (04:55)
06. Evil’s Rising (03:38)
07. Little One (03:27)
08. Mountain Town (03:43)
09. Million Dollars (02:35)
10. Santa Fe (03:56)

EAC log
Exact Audio Copy V1.3 from 2. September 2016

EAC extraction logfile from 10. February 2017, 17:54

Horse Thief / Trials & Truths

Used drive : TSSTcorpDVD+-RW SH-216DB Adapter: 1 ID: 0

Read mode : Secure
Utilize accurate stream : Yes
Defeat audio cache : Yes
Make use of C2 pointers : No

Read offset correction : 6
Overread into Lead-In and Lead-Out : No
Fill up missing offset samples with silence : Yes
Delete leading and trailing silent blocks : No
Null samples used in CRC calculations : Yes
Used interface : Native Win32 interface for Win NT & 2000
Gap handling : Appended to previous track

Used output format : User Defined Encoder
Selected bitrate : 1024 kBit/s
Quality : High
Add ID3 tag : No
Command line compressor : C:Program Files (x86)Exact Audio CopyFlacflac.exe
Additional command line options : -8 -e -V -T "ARTIST=%artist%" -T "TITLE=%title%" -T "ALBUM=%albumtitle%" -T "DATE=%year%" -T "TRACKNUMBER=%tracknr%" -T "GENRE=%genre%" -T "PERFORMER=%albuminterpret%" -T "COMPOSER=%composer%" %haslyrics%–tag-from-file=LYRICS="%lyricsfile%"%haslyrics% -T "ALBUMARTIST=%albumartist%" -T "DISCNUMBER=%cdnumber%" -T "TOTALDISCS=%totalcds%" -T "TOTALTRACKS=%numtracks%" -T "COMMENT=%comment%" %source% -o %dest%

TOC of the extracted CD

Track | Start | Length | Start sector | End sector
––––––––––––––––––––––––––––-
1 | 0:00.00 | 4:21.73 | 0 | 19647
2 | 4:21.73 | 2:36.22 | 19648 | 31369
3 | 6:58.20 | 3:03.34 | 31370 | 45128
4 | 10:01.54 | 4:12.35 | 45129 | 64063
5 | 14:14.14 | 4:55.62 | 64064 | 86250
6 | 19:10.01 | 3:38.44 | 86251 | 102644
7 | 22:48.45 | 3:27.37 | 102645 | 118206
8 | 26:16.07 | 3:43.35 | 118207 | 134966
9 | 29:59.42 | 2:35.25 | 134967 | 146616
10 | 32:34.67 | 4:00.31 | 146617 | 164647

Track 1

Filename C:EAC Rips[2017] Horse Thief – Trials & Truths (Lossless)1 – Another Youth.wav

Pre-gap length 0:00:02.00

Peak level 99.0 %
Extraction speed 1.8 X
Track quality 100.0 %
Test CRC DDD303C5
Copy CRC DDD303C5
Track not present in AccurateRip database
Copy OK

Track 2

Filename C:EAC Rips[2017] Horse Thief – Trials & Truths (Lossless)2 – Difference.wav

Peak level 100.0 %
Extraction speed 1.8 X
Track quality 100.0 %
Test CRC B1B41C4D
Copy CRC B1B41C4D
Track not present in AccurateRip database
Copy OK

Track 3

Filename C:EAC Rips[2017] Horse Thief – Trials & Truths (Lossless)3 – Drowsy.wav

Peak level 100.0 %
Extraction speed 2.0 X
Track quality 100.0 %
Test CRC 4B1C31D4
Copy CRC 4B1C31D4
Track not present in AccurateRip database
Copy OK

Track 4

Filename C:EAC Rips[2017] Horse Thief – Trials & Truths (Lossless)4 – Empire.wav

Peak level 98.3 %
Extraction speed 2.2 X
Track quality 100.0 %
Test CRC 4E64BAFC
Copy CRC 4E64BAFC
Track not present in AccurateRip database
Copy OK

Track 5

Filename C:EAC Rips[2017] Horse Thief – Trials & Truths (Lossless)5 – Falling For You.wav

Peak level 99.4 %
Extraction speed 2.1 X
Track quality 99.9 %
Test CRC 34B25B37
Copy CRC 34B25B37
Track not present in AccurateRip database
Copy OK

Track 6

Filename C:EAC Rips[2017] Horse Thief – Trials & Truths (Lossless)6 – Evils Rising.wav

Peak level 100.0 %
Extraction speed 2.5 X
Track quality 100.0 %
Test CRC 05051B73
Copy CRC 05051B73
Track not present in AccurateRip database
Copy OK

Track 7

Filename C:EAC Rips[2017] Horse Thief – Trials & Truths (Lossless)7 – Little One.wav

Peak level 98.1 %
Extraction speed 2.0 X
Track quality 99.9 %
Test CRC 92518B0F
Copy CRC 92518B0F
Track not present in AccurateRip database
Copy OK

Track 8

Filename C:EAC Rips[2017] Horse Thief – Trials & Truths (Lossless)8 – Mountain Town.wav

Peak level 100.0 %
Extraction speed 2.7 X
Track quality 100.0 %
Test CRC 57EB1BA4
Copy CRC 57EB1BA4
Track not present in AccurateRip database
Copy OK

Track 9

Filename C:EAC Rips[2017] Horse Thief – Trials & Truths (Lossless)9 – Million Dollars.wav

Peak level 87.2 %
Extraction speed 1.9 X
Track quality 99.9 %
Test CRC D12D9B1F
Copy CRC D12D9B1F
Track not present in AccurateRip database
Copy OK

Track 10

Filename C:EAC Rips[2017] Horse Thief – Trials & Truths (Lossless)10 – Santa Fe.wav

Peak level 100.0 %
Extraction speed 2.9 X
Track quality 100.0 %
Test CRC 61CFC50C
Copy CRC 61CFC50C
Track not present in AccurateRip database
Copy OK

None of the tracks are present in the AccurateRip database

No errors occurred

End of status report

–– CUETools DB Plugin V2.1.6

[CTDB TOCID: Z6KRgAXmZJG6oRiHJ.322aVbt9I-] disk not present in database
Submit result: Z6KRgAXmZJG6oRiHJ.322aVbt9I- has been uploaded

==== Log checksum 79860318C87FE53E55DC87390BBFB390A5B101719B0D642B653F4C6315DB18B3 ====

Thanks to the Original customer.

Horse Thief – Trials & Truths (2017) {Bella Union} Download, Warez, DDL, Free, Full Album, Torrent, Legal.

Download