Homer – Grown in U.S.A. (1970) [Reissue 2002]

Download
Homer - Grown in U.S.A. (1970) [Reissue 2002]

Homer – Grown in U.S.A. (1970) [Reissue 2002]
EAC Rip | FLAC (image+.cue+log) – 315 MB | MP3 CBR 320 kbps (LAME 3.93) – 107 MB | Covers – 24 MB
Genre: Progressive/Psychedelic Rock, Hard Rock | RAR 3% Rec. | Label: Akarma Records (AK 210)

With their roots traced in two legendary ’60s garage bands, The Outcasts and The Stoics, Homer were without doubt one of the best psychedelic/hard-rock outfits from Texas. Grown in U.S.A. was their only album, released as a private pressing in 1970. Rural psychedelic rock with early prog hints fuelled by stunning lead/dual guitar, melodic vocals and occasional mellotron. The 2002 CD reissue on Akarma adds two tracks from a non-LP 1970.

Tracklist:
01. Circles In The North
02. Taking Me Home
03. Dawson Creek
04. Survivor
05. In The Beginning
06. Love’s Coming
07. Four Days And Nights ‘Without You’
08. Cyrano In The Dark
09. Lonely Woman
10. Sunrise (Bonus track)
11. Dandelion Wine (Bonus track)

Total time: 45:30

EAC log
Exact Audio Copy V0.99 prebeta 3 from 28. July 2007

EAC extraction logfile from 20. April 2010, 11:28

Homer / Grown in USA

Used drive : PIONEER DVD-RW DVR-118L Adapter: 0 ID: 0

Read mode : Secure
Utilize accurate stream : Yes
Defeat audio cache : Yes
Make use of C2 pointers : No

Read offset correction : 6
Overread into Lead-In and Lead-Out : No
Fill up missing offset samples with silence : Yes
Delete leading and trailing silent blocks : No
Null samples used in CRC calculations : Yes
Used interface : Installed external ASPI interface

Used output format : Internal WAV Routines
Sample format : 44.100 Hz; 16 Bit; Stereo

TOC of the extracted CD

Track | Start | Length | Start sector | End sector
––––––––––––––––––––––––––––-
1 | 0:00.00 | 4:07.40 | 0 | 18564
2 | 4:07.40 | 3:52.45 | 18565 | 36009
3 | 8:00.10 | 3:22.72 | 36010 | 51231
4 | 11:23.07 | 5:02.35 | 51232 | 73916
5 | 16:25.42 | 3:38.70 | 73917 | 90336
6 | 20:04.37 | 4:06.63 | 90337 | 108849
7 | 24:11.25 | 4:20.60 | 108850 | 128409
8 | 28:32.10 | 6:38.50 | 128410 | 158309
9 | 35:10.60 | 3:40.55 | 158310 | 174864
10 | 38:51.40 | 3:05.15 | 174865 | 188754
11 | 41:56.55 | 3:32.65 | 188755 | 204719

Range status and errors

Selected range

Filename C:Homer – Grown in USA.wav

Peak level 100.0 %
Range quality 100.0 %
Test CRC 4906A304
Copy CRC 4906A304
Copy OK

No errors occurred

AccurateRip summary

Track 1 not present in database
Track 2 not present in database
Track 3 not present in database
Track 4 not present in database
Track 5 not present in database
Track 6 not present in database
Track 7 not present in database
Track 8 not present in database
Track 9 not present in database
Track 10 not present in database
Track 11 not present in database

None of the tracks are present in the AccurateRip database

End of status report

CUETools log
[CUETools log; Date: 08.10.2017 20:28:21; Version: 2.1.4]
[CTDB TOCID: An.hy5eLHVNGI.tiAbnd2cM.ai4-] found.
Track | CTDB Status
1 | (2/2) Accurately ripped
2 | (2/2) Accurately ripped
3 | (2/2) Accurately ripped
4 | (2/2) Accurately ripped
5 | (2/2) Accurately ripped
6 | (2/2) Accurately ripped
7 | (2/2) Accurately ripped
8 | (2/2) Accurately ripped
9 | (2/2) Accurately ripped
10 | (2/2) Accurately ripped
11 | (2/2) Accurately ripped
[AccurateRip ID: 0012d433-00a424bf-8e0aa90b] found.
Track [ CRC | V2 ] Status
01 [b112b5ea|ad937079] (0+1/1) Accurately ripped
02 [46e2096b|aedbb658] (0+1/1) Accurately ripped
03 [4ddc4b1b|9f92069c] (0+1/1) Accurately ripped
04 [f95275d1|63fe27c7] (0+1/1) Accurately ripped
05 [2fe7520d|d800d918] (0+1/1) Accurately ripped
06 [85b9c178|327c45e9] (0+1/1) Accurately ripped
07 [daccb785|d7baeefe] (0+1/1) Accurately ripped
08 [71d15c1a|fa632552] (0+1/1) Accurately ripped
09 [61279e04|227e3d2e] (0+1/1) Accurately ripped
10 [095c0a9d|6880783a] (0+1/1) Accurately ripped
11 [f3661315|7e134924] (0+1/1) Accurately ripped

Track Peak [ CRC32 ] [W/O NULL] [ LOG ]
– 99,9 [4906A304] [DA22E7CD] CRC32
01 99,9 [DF81CE1C] [2525740B]
02 99,9 [8D9DFE34] [486E3979]
03 99,9 [B374CA28] [B2FEA75B]
04 99,9 [037BD8EC] [FF82FA72]
05 99,9 [2EA7C734] [061B0B61]
06 99,9 [C79A9713] [FC7B0181]
07 99,9 [548BC901] [46E9AEFB]
08 99,9 [1572A436] [A539A134]
09 99,9 [0ED7002D] [CF6C8A6F]
10 99,9 [3546DB47] [3C159309]
11 99,9 [BA1A5420] [9806C3C0]

Thanks to sanparr

Welcome to My Blog!

Homer – Grown in U.S.A. (1970) [Reissue 2002] Download, Warez, DDL, Free, Full Album, Torrent, Legal.

Download