High-Functioning Flesh – Culture Cut (2017) {Dais}

Download
High-Functioning Flesh - Culture Cut (2017) {Dais}

High-Functioning Flesh – Culture Cut (2017)
XLD Rip | FLAC (tracks+.cue, log) | Front cover only | 318 mb | MP3 CBR 320kbps | RAR | 113 mb
Electronic, Punk, Synthpop, EBM, Industrial | Label: Dais – DAIS101

Since the inception of Gregory Vand and Susan Subtract’s electro-punk outfit High-Functioning Flesh in 2012, the band has proven to be one of the most singular acts in years, defying the genre tag of “classic” EBM, as the creativity and fresh perspective they bring to the stage and studio has been instrumental in carving out a modern audience for the genre – elevating HFF into a category all their own.

Following their striking debut on DKA Records in 2014, High-Functioning Flesh delivered an exceptional step forward in their sound on their sophomore effort for Dais Records, the “Definite Structures” LP in 2015. Since then, High-Functioning Flesh has toured extensively with label mates Body of Light and previewed their caustic shift to a more refined, hardened signature with their “Human Remains” single in 2016. We now find High-Functioning Flesh at their sharpest and most poised position to date within their newest album: “Culture Cut”.

Produced and mixed solely by the band in their personal studio during the Fall of 2016, Vand and Subtract felt the need to start the recording process on fresh footing, and composed “Culture Cut” using a variety of newly acquired vintage Roland and Oberheim equipment, creating entirely new percussion and synth samples to break out of familiar writing habits.

The result was an album written in the face of a world unraveling – with several tracks addressing the dynamics of life in our current political climate. Songs such as “Drawn Out” discuss the observation of projected failure in our daily lives while “Provoke the Wound” projects a vision of dystopian collapse. “Hands at Play” reveal the band’s more melodic sound, previously debuted on “Heightened State”, the b-side to last year’s “Human Remains” single. Regardless of this pliant approach, lyrically the band holds firm to its abstract doubt and disinclined sense of compromise. “Invoking Phantoms” was written as a dedicatory ritual in remembrance of friends lost to the Ghostship Fire in Oakland, CA during the Winter of 2016.

Tracklist:

01. Talk About (04:23)
02. Stationed (05:13)
03. Gone Home (03:46)
04. Invoking Phantoms (05:09)
05. Drawn Out (05:45)
06. Hands At Play (04:14)
07. Provoke The Wound (04:41)
08. Suffered Collapse (05:00)

XLD log
X Lossless Decoder version 20161007 (149.3)

XLD extraction logfile from 2017-07-31 15:26:17 -0400

High-Functioning Flesh / Culture Cut

Used drive : HL-DT-ST BD-RE BP50NB40 (revision 1.00)
Media type : Pressed CD

Ripper mode : XLD Secure Ripper
Disable audio cache : OK for the drive with a cache less than 1375KiB
Make use of C2 pointers : NO
Read offset correction : 6
Max retry count : 100
Gap status : Analyzed, Appended (except HTOA)

TOC of the extracted CD
Track | Start | Length | Start sector | End sector
––––––––––––––––––––––––––––-
1 | 00:00:00 | 04:23:15 | 0 | 19739
2 | 04:23:15 | 05:13:03 | 19740 | 43217
3 | 09:36:18 | 03:45:73 | 43218 | 60165
4 | 13:22:16 | 05:08:37 | 60166 | 83302
5 | 18:30:53 | 05:44:71 | 83303 | 109173
6 | 24:15:49 | 04:13:44 | 109174 | 128192
7 | 28:29:18 | 04:40:72 | 128193 | 149264
8 | 33:10:15 | 05:00:11 | 149265 | 171775
9 | 38:10:26 | 04:33:42 | 171776 | 192292
10 | 42:43:68 | 04:53:10 | 192293 | 214277

AccurateRip Summary
Disc not found in AccurateRip DB.

All Tracks
Album gain : -7.62 dB
Peak : 0.995453
Statistics
Read error : 0
Jitter error (maybe fixed) : 0
Retry sector count : 0
Damaged sector count : 0

Track 01
Filename : /Users/sockhead/Music/XLD/High-Functioning Flesh – Culture Cut (2017) [FLAC]/01 Talk About.flac
Pre-gap length : 00:02:00

Track gain : -8.06 dB
Peak : 0.978638
CRC32 hash (test run) : CC2B29EB
CRC32 hash : CC2B29EB
CRC32 hash (skip zero) : B1D7C5CD
AccurateRip v1 signature : 152EDFD3
AccurateRip v2 signature : 5451F57D
->Track not present in AccurateRip database.
Statistics
Read error : 0
Jitter error (maybe fixed) : 0
Retry sector count : 0
Damaged sector count : 0

Track 02
Filename : /Users/sockhead/Music/XLD/High-Functioning Flesh – Culture Cut (2017) [FLAC]/02 Stationed.flac

Track gain : -7.61 dB
Peak : 0.984985
CRC32 hash (test run) : 5B91AD50
CRC32 hash : 5B91AD50
CRC32 hash (skip zero) : 6F76FD4D
AccurateRip v1 signature : 628A0EED
AccurateRip v2 signature : C0E9C58A
->Track not present in AccurateRip database.
Statistics
Read error : 0
Jitter error (maybe fixed) : 0
Retry sector count : 0
Damaged sector count : 0

Track 03
Filename : /Users/sockhead/Music/XLD/High-Functioning Flesh – Culture Cut (2017) [FLAC]/03 Gone Home.flac

Track gain : -7.28 dB
Peak : 0.984100
CRC32 hash (test run) : 0A57F557
CRC32 hash : 0A57F557
CRC32 hash (skip zero) : 10453BA7
AccurateRip v1 signature : BD883A21
AccurateRip v2 signature : 7FB29156
->Track not present in AccurateRip database.
Statistics
Read error : 0
Jitter error (maybe fixed) : 0
Retry sector count : 0
Damaged sector count : 0

Track 04
Filename : /Users/sockhead/Music/XLD/High-Functioning Flesh – Culture Cut (2017) [FLAC]/04 Invoking Phantoms.flac

Track gain : -7.58 dB
Peak : 0.995453
CRC32 hash (test run) : 8995DBD7
CRC32 hash : 8995DBD7
CRC32 hash (skip zero) : CBFF7732
AccurateRip v1 signature : 5F5D0552
AccurateRip v2 signature : 0473AB2D
->Track not present in AccurateRip database.
Statistics
Read error : 0
Jitter error (maybe fixed) : 0
Retry sector count : 0
Damaged sector count : 0

Track 05
Filename : /Users/sockhead/Music/XLD/High-Functioning Flesh – Culture Cut (2017) [FLAC]/05 Drawn Out.flac

Track gain : -8.08 dB
Peak : 0.983795
CRC32 hash (test run) : D46460C6
CRC32 hash : D46460C6
CRC32 hash (skip zero) : 33BC1EA1
AccurateRip v1 signature : B51A958F
AccurateRip v2 signature : B0C5849F
->Track not present in AccurateRip database.
Statistics
Read error : 0
Jitter error (maybe fixed) : 0
Retry sector count : 0
Damaged sector count : 0

Track 06
Filename : /Users/sockhead/Music/XLD/High-Functioning Flesh – Culture Cut (2017) [FLAC]/06 Hands At Play.flac

Track gain : -7.70 dB
Peak : 0.978912
CRC32 hash (test run) : 696326B6
CRC32 hash : 696326B6
CRC32 hash (skip zero) : 0501E30C
AccurateRip v1 signature : FCA7F097
AccurateRip v2 signature : CCACA498
->Track not present in AccurateRip database.
Statistics
Read error : 0
Jitter error (maybe fixed) : 0
Retry sector count : 0
Damaged sector count : 0

Track 07
Filename : /Users/sockhead/Music/XLD/High-Functioning Flesh – Culture Cut (2017) [FLAC]/07 Provoke The Wound.flac

Track gain : -8.32 dB
Peak : 0.982635
CRC32 hash (test run) : E59CE0DD
CRC32 hash : E59CE0DD
CRC32 hash (skip zero) : D9864F48
AccurateRip v1 signature : 958AA230
AccurateRip v2 signature : 2140A573
->Track not present in AccurateRip database.
Statistics
Read error : 0
Jitter error (maybe fixed) : 0
Retry sector count : 0
Damaged sector count : 0

Track 08
Filename : /Users/sockhead/Music/XLD/High-Functioning Flesh – Culture Cut (2017) [FLAC]/08 Suffered Collapse.flac

Track gain : -7.52 dB
Peak : 0.978516
CRC32 hash (test run) : 545CECFD
CRC32 hash : 545CECFD
CRC32 hash (skip zero) : E1E51F22
AccurateRip v1 signature : 2CCFF08B
AccurateRip v2 signature : 8A620BFC
->Track not present in AccurateRip database.
Statistics
Read error : 0
Jitter error (maybe fixed) : 0
Retry sector count : 0
Damaged sector count : 0

Track 09
Filename : /Users/sockhead/Music/XLD/High-Functioning Flesh – Culture Cut (2017) [FLAC]/09 Human Remains.flac

Track gain : -6.45 dB
Peak : 0.961884
CRC32 hash (test run) : BE9D025A
CRC32 hash : BE9D025A
CRC32 hash (skip zero) : 20BFC005
AccurateRip v1 signature : 8E8EC6B7
AccurateRip v2 signature : EB47B164
->Track not present in AccurateRip database.
Statistics
Read error : 0
Jitter error (maybe fixed) : 0
Retry sector count : 0
Damaged sector count : 0

Track 10
Filename : /Users/sockhead/Music/XLD/High-Functioning Flesh – Culture Cut (2017) [FLAC]/10 Heightened States.flac

Track gain : -7.29 dB
Peak : 0.965759
CRC32 hash (test run) : 384F4C5F
CRC32 hash : 384F4C5F
CRC32 hash (skip zero) : 297036F5
AccurateRip v1 signature : 0D4E9FB0
AccurateRip v2 signature : 549A79C6
->Track not present in AccurateRip database.
Statistics
Read error : 0
Jitter error (maybe fixed) : 0
Retry sector count : 0
Damaged sector count : 0

No errors occurred

End of status report

––-BEGIN XLD SIGNATURE––-
wU9ZBp_FB.fvyIYzDCIAPWpyG8W.BvqXhuyQcFAm4.CyDs5WjCP_Kbe0XbKCQdVMx9XSE6BYrTKgKAOJPxPhaFia_h8CU0hPypHhVLq
––-END XLD SIGNATURE––-

Thanks to the Original customer.

High-Functioning Flesh – Culture Cut (2017) {Dais} Download, Warez, DDL, Free, Full Album, Torrent, Legal.

Download