Hevidence – Nobody's Fault (2016) [Japanese Ed.] | ViralVideoPk

Daily Dose of Free Downloads

Hevidence – Nobody's Fault (2016) [Japanese Ed.]

Download

Hevidence - Nobody's Fault (2016) [Japanese Ed.]

Hevidence – Nobody’s Fault (2016) [Japanese Ed.]
EAC Rip | FLAC: Image+Cue+Log | 433 Mb | MP3 CBR 320 kbps | 143 Mb | Scans | 39 Mb | Time: 55:50
King Record Co., Ltd. | KICP-1820
Heavy/Progressive Metal, Hard Rock

"Nobody’s Fault", second album from HEVIDENCE, formerly EVIDENCE, brings Melodic metal from Italy. It offers fast guitars, thundering drums and strong melodies. HEVIDENCE is the brainchild of Italian guitar player Diego Reali (ex DGM). The songs often stretch out stylistically to YNGWIE MALMSTEEN as well as to classic EUROPE. The production is well done and the record surely makes its point. A band to keep an eye on.

Hevidence - Nobody's Fault (2016) [Japanese Ed.]
Hevidence
Frontiers | CDJapan

Track Listing

01. Dig In The Night (04:42)
02. Nobody’s Fault (04:45)
03. Miracle (05:50)
04. So Unkind (04:01)
05. Ave Maria (03:17)
06. Overdrive (03:50)
07. I Want More (04:54)
08. Out Of This Time (04:29)
09. Pack Your Bags (05:26)
10. All I Ever Needed (03:48)
11. Note (03:45)
12. Nobody’s Fault (Acoustic Version) (Japan Bonus Track) (07:04)

Produced by Diego Reali

The Band

• Corrado Quoiani – Vocals
• Diego Reali – Guitars
• Andrea Arcangeli – Bass
• Emiliano Bonini – Drums

EAC Log
Exact Audio Copy V1.3 from 2. September 2016

EAC extraction logfile from 9. December 2016, 20:49

Hevidence / Nobody’s Fault (Japan)

Used drive : ATAPI iHAS122 W Adapter: 2 ID: 0

Read mode : Secure
Utilize accurate stream : Yes
Defeat audio cache : Yes
Make use of C2 pointers : No

Read offset correction : 48
Overread into Lead-In and Lead-Out : No
Fill up missing offset samples with silence : Yes
Delete leading and trailing silent blocks : No
Null samples used in CRC calculations : Yes
Used interface : Installed external ASPI interface

Used output format : User Defined Encoder
Selected bitrate : 1024 kBit/s
Quality : High
Add ID3 tag : Yes
Command line compressor : C:Program FilesFLACflac.exe
Additional command line options : -V -8 -T "Date=%year%" -T "Genre=%genre%" -T"COMMENT=Ripped by Ilijan" -8 -V %source%

TOC of the extracted CD

Track | Start | Length | Start sector | End sector
––––––––––––––––––––––––––––-
1 | 0:00.00 | 4:41.41 | 0 | 21115
2 | 4:41.41 | 4:45.17 | 21116 | 42507
3 | 9:26.58 | 5:49.74 | 42508 | 68756
4 | 15:16.57 | 4:00.36 | 68757 | 86792
5 | 19:17.18 | 3:16.72 | 86793 | 101564
6 | 22:34.15 | 3:50.28 | 101565 | 118842
7 | 26:24.43 | 4:53.41 | 118843 | 140858
8 | 31:18.09 | 4:28.61 | 140859 | 161019
9 | 35:46.70 | 5:25.62 | 161020 | 185456
10 | 41:12.57 | 3:48.11 | 185457 | 202567
11 | 45:00.68 | 3:44.61 | 202568 | 219428
12 | 48:45.54 | 7:03.66 | 219429 | 251219

Range status and errors

Selected range

Filename D:ilкоHevidence – Nobody’s Fault (Japan).wav

Peak level 99.9 %
Extraction speed 3.8 X
Range quality 100.0 %
Test CRC 528591BA
Copy CRC 528591BA
Copy OK

No errors occurred

AccurateRip summary

Track 1 not present in database
Track 2 not present in database
Track 3 not present in database
Track 4 not present in database
Track 5 not present in database
Track 6 not present in database
Track 7 not present in database
Track 8 not present in database
Track 9 not present in database
Track 10 not present in database
Track 11 not present in database
Track 12 not present in database

None of the tracks are present in the AccurateRip database

End of status report

–– CUETools DB Plugin V2.1.6

[CTDB TOCID: sr1hS7SIzs03SQMjdEuURD8bXfQ-] found
Submit result: sr1hS7SIzs03SQMjdEuURD8bXfQ- has been confirmed
Track | CTDB Status
1 | (1/1) Accurately ripped
2 | (1/1) Accurately ripped
3 | (1/1) Accurately ripped
4 | (1/1) Accurately ripped
5 | (1/1) Accurately ripped
6 | (1/1) Accurately ripped
7 | (1/1) Accurately ripped
8 | (1/1) Accurately ripped
9 | (1/1) Accurately ripped
10 | (1/1) Accurately ripped
11 | (1/1) Accurately ripped
12 | (1/1) Accurately ripped

==== Log checksum 64C5ECC1224F7E90833305015A858BE2EFB0673B8C740283B99F10563AD01395 ====

Many thanks to the original uploader: Ilijan

SEE also:
DGM 1996 Random Access Zone
DGM 1997 Change Direction
DGM 1999 Wings Of Time [Japanese Ed.]
DGM 2001 Dreamland [Japanese Ed.]
DGM 2003 Hidden Place
DGM 2004 Misplaced
DGM 2007 Different Shapes
DGM 2009 FrAme
DGM 2010 Synthesis [DVD+CD]
DGM 2013 Momentum [Digipak]
DGM 2013 Momentum [Japanese Ed.]
DGM 2016 The Passage [Japanese Ed.]

……
Welcome to My Blog for more wonderful music!
……

Hevidence – Nobody's Fault (2016) [Japanese Ed.] Download, Warez, DDL, Free, Full Album, Torrent, Legal.

Download


  • Recent Posts

  • Recent Tags