Herbert Howells, Eric Whitacre, Ildebrando Pizzetti – Requiem (Conspirare, C. H. Johnson, Company Of Voices) (2009)

Download
Herbert Howells, Eric Whitacre, Ildebrando Pizzetti - Requiem (Conspirare, C. H. Johnson, Company Of Voices) (2009)

Herbert Howells, Eric Whitacre, Ildebrando Pizzetti – Requiem (Conspirare, C. H. Johnson, Company Of Voices) (2009)
Classical | 1cd | EAC Rip | Flac + Cue + Log | covers
Harmonia Mundi, HMU 807518; SACD Red Book Layer | rec: 2005 | 290Mb

Requiem, a two-disc set by Conspirare, the Austin, TX-based vocal ensemble, was originally released in 2006 on the Clarion label and received two Grammy nominations. This release on Harmonia Mundi has trimmed several tracks so that it could be issued on a single disc, and it received the Dutch Edison Award in the Choral Music category. It’s easy to hear why it has been so highly honored. The group sings with an exceptionally pure and focused tone, and its blend is generously warm. Founder and conductor Craig Hella-Johnson leads the ensemble of about three-dozen singers in performances of unusually supple and nuanced phrasing. The most familiar work is Herbert Howells’ Requiem, which the composer wrote as a memorial to his son in 1936, but which wasn’t performed until 1980. Drawing its texts largely from the Psalms, it’s an achingly heartfelt work and the group pours itself into it with glowing intensity. All the works on the album are in a similar vein of introspective melancholy. The two movements from Eric Whitacre’s Three Songs of Faith, based on poems by e.e. cummings, are especially effective: radiant, awe-filled illuminations of the texts. His subtly innovative treatment of choral textures gives his work a distinctive sensuality. Ildebrando Pizzetti’s 1922 Messa di Requiem is in a more conventionally late Romantic idiom work that draws on both plainsong and Renaissance polyphony. It’s an expressive piece, but the composer seems not to have known when he had said enough of a good thing, and it wears out its welcome, especially in the interminable Dies Irae. The remaining short pieces are attractive and emotionally direct, but they don’t have the depth of the Howells or the Whitacre. Fans of the group may want to seek out the original Clarion release, if only to hear all three movements of Whitacre’s set. The sound is clean and warmly ambient. ~Allmusic

Track listing
01. Requiem (Howells): Salvator Mundi (2:19)
02. Requiem (Howells): Psalm 23 (2:43)
03. Requiem (Howells): Requiem aternam (1) (3:47)
04. Requiem (Howells): Psalm 121 (2:40)
05. Requiem (Howells): Requiem aternam (2) (4:01)
06. Requiem (Howells): I heard a Voice From Heaven (4:01)
07. Three Songs of Faith (Whitacre): hope, faith, life, love (4:06)
08. Three Songs of Faith (Whitacre): I thank You God for most this amazing day (7:00)
09. We remember them (Grantham) (4:37)
10. Messa di Requiem (Pizzetti): Requiem (6:36)
11. Messa di Requiem (Pizzetti): Dies Irae (11:20)
12. Messa di Requiem (Pizzetti): Sanctus (3:33)
13. Messa di Requiem (Pizzetti): Agnus Dei (2:10)
14. Messa di Requiem (Pizzetti): Libera Me (5:37)
15. The Road Home (Paulus) (3:56)
16. Requiem (Gilkyson) (4:11)

Composers
Herbert Howells (1892 – 1983)
Eric Whitacre (b. 1970)
Donald Grantham (b. 1947)
Ildebrando Pizzetti (1880 – 1968)
Stephen Paulus (b. 1949)
Eliza Gilkyson (b. 1950)

eac log:
Exact Audio Copy V0.99 prebeta 5 from 4. May 2009

EAC extraction logfile from 19. December 2009, 21:40

Conspirare: Craig Hella Johnson & Company of Voices / Requiem: Howells, Whitacre, Pizzetti

Used drive : HL-DT-STDVDRAM GSA-4163B Adapter: 1 ID: 0

Read mode : Secure
Utilize accurate stream : Yes
Defeat audio cache : Yes
Make use of C2 pointers : No

Read offset correction : 667
Overread into Lead-In and Lead-Out : No
Fill up missing offset samples with silence : Yes
Delete leading and trailing silent blocks : No
Null samples used in CRC calculations : Yes
Used interface : Native Win32 interface for Win NT & 2000
Gap handling : Appended to previous track

Used output format : User Defined Encoder
Selected bitrate : 128 kBit/s
Quality : High
Add ID3 tag : No
Command line compressor : C:Program FilesFLACflac.exe
Additional command line options : -V -8 -T "artist=%a" -T "title=%t" -T "album=%g" -T "date=%y" -T "tracknumber=%n" -T "genre=%m" %s

TOC of the extracted CD

Track | Start | Length | Start sector | End sector
––––––––––––––––––––––––––––-
1 | 0:00.00 | 2:19.17 | 0 | 10441
2 | 2:19.17 | 2:43.64 | 10442 | 22730
3 | 5:03.06 | 3:47.72 | 22731 | 39827
4 | 8:51.03 | 2:40.50 | 39828 | 51877
5 | 11:31.53 | 4:01.33 | 51878 | 69985
6 | 15:33.11 | 4:01.14 | 69986 | 88074
7 | 19:34.25 | 4:06.03 | 88075 | 106527
8 | 23:40.28 | 7:00.11 | 106528 | 138038
9 | 30:40.39 | 4:37.14 | 138039 | 158827
10 | 35:17.53 | 6:36.64 | 158828 | 188591
11 | 41:54.42 | 11:20.01 | 188592 | 239592
12 | 53:14.43 | 3:33.30 | 239593 | 255597
13 | 56:47.73 | 2:10.74 | 255598 | 265421
14 | 58:58.72 | 5:37.22 | 265422 | 290718
15 | 64:36.19 | 3:56.68 | 290719 | 308486
16 | 68:33.12 | 4:11.46 | 308487 | 327357

Track 1

Filename D:AudioRippedRequiem- Howells, Whitacre, Pizzetti [f]1–Requiem (Howells)- Salvator Mundi.wav

Pre-gap length 0:00:02.00

Peak level 77.0 %
Track quality 100.0 %
Test CRC 1339C8A8
Copy CRC 1339C8A8
Track not present in AccurateRip database
Copy OK

Track 2

Filename D:AudioRippedRequiem- Howells, Whitacre, Pizzetti [f]2–Requiem (Howells)- Psalm 23.wav

Peak level 87.1 %
Track quality 100.0 %
Test CRC 04808A28
Copy CRC 04808A28
Track not present in AccurateRip database
Copy OK

Track 3

Filename D:AudioRippedRequiem- Howells, Whitacre, Pizzetti [f]3–Requiem (Howells)- Requiem ćternam (1).wav

Peak level 44.6 %
Track quality 100.0 %
Test CRC 5CEB26CF
Copy CRC 5CEB26CF
Track not present in AccurateRip database
Copy OK

Track 4

Filename D:AudioRippedRequiem- Howells, Whitacre, Pizzetti [f]4–Requiem (Howells)- Psalm 121.wav

Peak level 61.4 %
Track quality 100.0 %
Test CRC A891FEAA
Copy CRC A891FEAA
Track not present in AccurateRip database
Copy OK

Track 5

Filename D:AudioRippedRequiem- Howells, Whitacre, Pizzetti [f]5–Requiem (Howells)- Requiem ćternam (2).wav

Peak level 96.3 %
Track quality 100.0 %
Test CRC 19F2E3D0
Copy CRC 19F2E3D0
Track not present in AccurateRip database
Copy OK

Track 6

Filename D:AudioRippedRequiem- Howells, Whitacre, Pizzetti [f]6–Requiem (Howells)- I heard a Voice From Heaven.wav

Peak level 67.1 %
Track quality 100.0 %
Test CRC FF4CCEA9
Copy CRC FF4CCEA9
Track not present in AccurateRip database
Copy OK

Track 7

Filename D:AudioRippedRequiem- Howells, Whitacre, Pizzetti [f]7–Three Songs of Faith (Whitacre)- hope, faith, life, love.wav

Peak level 96.5 %
Track quality 99.9 %
Test CRC 60AAF7F7
Copy CRC 60AAF7F7
Track not present in AccurateRip database
Copy OK

Track 8

Filename D:AudioRippedRequiem- Howells, Whitacre, Pizzetti [f]8–Three Songs of Faith (Whitacre)- I thank You God for most this amazing day.wav

Peak level 91.6 %
Track quality 100.0 %
Test CRC E6FFE304
Copy CRC E6FFE304
Track not present in AccurateRip database
Copy OK

Track 9

Filename D:AudioRippedRequiem- Howells, Whitacre, Pizzetti [f]9–We remember them (Grantham).wav

Peak level 51.0 %
Track quality 100.0 %
Test CRC 43E58CDB
Copy CRC 43E58CDB
Track not present in AccurateRip database
Copy OK

Track 10

Filename D:AudioRippedRequiem- Howells, Whitacre, Pizzetti [f]10–Messa di Requiem (Pizzetti)- Requiem.wav

Peak level 70.3 %
Track quality 100.0 %
Test CRC 5DB0C822
Copy CRC 5DB0C822
Track not present in AccurateRip database
Copy OK

Track 11

Filename D:AudioRippedRequiem- Howells, Whitacre, Pizzetti [f]11–Messa di Requiem (Pizzetti)- Dies Irae.wav

Peak level 80.1 %
Track quality 100.0 %
Test CRC 9E814E1F
Copy CRC 9E814E1F
Track not present in AccurateRip database
Copy OK

Track 12

Filename D:AudioRippedRequiem- Howells, Whitacre, Pizzetti [f]12–Messa di Requiem (Pizzetti)- Sanctus.wav

Peak level 79.3 %
Track quality 100.0 %
Test CRC 0D7D70A4
Copy CRC 0D7D70A4
Track not present in AccurateRip database
Copy OK

Track 13

Filename D:AudioRippedRequiem- Howells, Whitacre, Pizzetti [f]13–Messa di Requiem (Pizzetti)- Agnus Dei.wav

Peak level 27.0 %
Track quality 100.0 %
Test CRC 94424FF1
Copy CRC 94424FF1
Track not present in AccurateRip database
Copy OK

Track 14

Filename D:AudioRippedRequiem- Howells, Whitacre, Pizzetti [f]14–Messa di Requiem (Pizzetti)- Libera Me.wav

Peak level 62.3 %
Track quality 100.0 %
Test CRC C734BFB3
Copy CRC C734BFB3
Track not present in AccurateRip database
Copy OK

Track 15

Filename D:AudioRippedRequiem- Howells, Whitacre, Pizzetti [f]15–The Road Home (Paulus).wav

Peak level 55.3 %
Track quality 100.0 %
Test CRC B840AD88
Copy CRC B840AD88
Track not present in AccurateRip database
Copy OK

Track 16

Filename D:AudioRippedRequiem- Howells, Whitacre, Pizzetti [f]16–Requiem (Gilkyson).wav

Peak level 50.2 %
Track quality 99.8 %
Test CRC 56C5C917
Copy CRC 56C5C917
Track not present in AccurateRip database
Copy OK

None of the tracks are present in the AccurateRip database

No errors occurred

End of status report

cuetools report:
[CUETools log; Date: 2017. 02. 08. 14:41:30; Version: 2.1.6]
[CTDB TOCID: eeCyabJGlS6jOsfnCCVRtPr8BDQ-] found.
Track | CTDB Status
1 | (7/7) Accurately ripped
2 | (7/7) Accurately ripped
3 | (7/7) Accurately ripped
4 | (7/7) Accurately ripped
5 | (7/7) Accurately ripped
6 | (7/7) Accurately ripped
7 | (7/7) Accurately ripped
8 | (7/7) Accurately ripped
9 | (7/7) Accurately ripped
10 | (7/7) Accurately ripped
11 | (7/7) Accurately ripped
12 | (7/7) Accurately ripped
13 | (7/7) Accurately ripped
14 | (7/7) Accurately ripped
15 | (7/7) Accurately ripped
16 | (7/7) Accurately ripped
[AccurateRip ID: 00271838-01e974f9-d4110c10] found.
Track [ CRC | V2 ] Status
01 [5acfe9bb|09473703] (2+0/2) Accurately ripped
02 [9507d825|9041a154] (2+0/2) Accurately ripped
03 [d713f7c0|8eb7be16] (2+0/2) Accurately ripped
04 [fb2328a5|17be5f6a] (2+0/4) Accurately ripped
05 [91f32802|14958628] (2+0/4) Accurately ripped
06 [473dfc5a|534f37a3] (2+0/4) Accurately ripped
07 [880e5eee|405bf965] (2+0/4) Accurately ripped
08 [eca0021f|6bd4ea8f] (2+0/4) Accurately ripped
09 [78f9699e|bab901f7] (2+0/4) Accurately ripped
10 [238b2a83|aeba0d08] (2+0/4) Accurately ripped
11 [15960aa2|770053b7] (2+0/4) Accurately ripped
12 [70dd88a5|d5ea247c] (2+0/4) Accurately ripped
13 [583b2080|50b74608] (2+0/4) Accurately ripped
14 [34b3322b|c084d440] (2+0/4) Accurately ripped
15 [6eb6a57b|fd86619d] (2+0/4) Accurately ripped
16 [c71da27d|b51ba89b] (2+0/4) Accurately ripped
Offsetted by -635:
01 [ccea0634] (0/2) No match (V2 was not tested)
02 [d8785521] (0/2) No match (V2 was not tested)
03 [1bef6c80] (0/2) No match (V2 was not tested)
04 [335b29e2] (0/4) No match (V2 was not tested)
05 [72bd0fad] (0/4) No match (V2 was not tested)
06 [51c56d48] (0/4) No match (V2 was not tested)
07 [b5299aaa] (0/4) No match (V2 was not tested)
08 [2656bff0] (0/4) No match (V2 was not tested)
09 [a616e10d] (0/4) No match (V2 was not tested)
10 [613a551b] (0/4) No match (V2 was not tested)
11 [126084ff] (0/4) No match (V2 was not tested)
12 [11872c37] (0/4) No match (V2 was not tested)
13 [6915fe29] (0/4) No match (V2 was not tested)
14 [a24d0746] (0/4) No match (V2 was not tested)
15 [63a2725e] (0/4) No match (V2 was not tested)
16 [a7fe3a55] (0/4) No match (V2 was not tested)

Track Peak [ CRC32 ] [W/O NULL] [ LOG ]
– 96,5 [606444DE] [A486C356]
01 77,0 [1339C8A8] [CD840A01] CRC32
02 87,1 [04808A28] [8BE7BB11] CRC32
03 44,6 [5CEB26CF] [A2A41DD8] CRC32
04 61,4 [A891FEAA] [91A011CF] CRC32
05 96,3 [19F2E3D0] [47CB61AC] CRC32
06 67,1 [FF4CCEA9] [E4C87CBF] CRC32
07 96,5 [60AAF7F7] [40FB4AA0] CRC32
08 91,6 [E6FFE304] [453D1C42] CRC32
09 51,0 [43E58CDB] [16A8BE61] CRC32
10 70,3 [5DB0C822] [09D37179] CRC32
11 80,1 [9E814E1F] [982D4079] CRC32
12 79,3 [0D7D70A4] [65156AB4] CRC32
13 27,0 [94424FF1] [0A96FA9D] CRC32
14 62,3 [C734BFB3] [E1118C76] CRC32
15 55,3 [B840AD88] [FF54932C] CRC32
16 50,2 [56C5C917] [2E274123] CRC32

Thx to Poincare

Herbert Howells, Eric Whitacre, Ildebrando Pizzetti – Requiem (Conspirare, C. H. Johnson, Company Of Voices) (2009) Download, Warez, DDL, Free, Full Album, Torrent, Legal.

Download