Henri Sigfridsson, Jan Söderblom & Pori Sinfonietta – Palmgren: The River (2017)

Download
Henri Sigfridsson, Jan Söderblom & Pori Sinfonietta - Palmgren: The River (2017)

Henri Sigfridsson, Jan Söderblom & Pori Sinfonietta – Palmgren: The River
Classical | WEB FLAC (tracks) & d. booklet | 71:45 min | 269 MB
Label: Alba | Tracks: 10 | Rls.date: 2017

Finnish composer and pianist Selim Palmgren (1878-1951) was a very successful concert pianist throughout Finland and Scandinavian. He is sometimes known as the Nordic Chopin. Throughout his career, Palmgren wrote a great deal of piano music. In fact, his extant catalog includes 300 individual piano works and five piano concertos. This release includes the first three of Palmgrens piano concertos, along with seven short pieces for violin and piano. Pianist Henri Sigfridsson is the star of this album, along with violinist Jan Soderblom.

TRACKLIST
01. Piano Concerto No. 2, Op. 33 "The River"
02. Piano Concerto No. 1 in G Minor, Op. 13
03. Piano Concerto No. 3, Op. 41 "Metamorphoses"
04. Pieces, Op. 78: No. 1, Prelude
05. Pieces, Op. 78: No. 2, Humoresque
06. Pieces, Op. 78: No. 3, Canzonetta
07. Pieces, Op. 78: No. 4, The Fiddler
08. Pieces, Op. 78: No. 5, Finnish Romance
09. Pieces, Op. 78: No. 6, Oriental Serenade
10. Pieces, Op. 78: No. 7, Preghiera

auCDtect
PERFORMER: auCDtect Task Manager, ver. 1.6.0 RC1 build 1.6.0.1
Copyright © 2008-2010 y-soft. All rights reserved

ANALYZER: auCDtect: CD records authenticity detector, version 0.8.2
Copyright © 2004 Oleg Berngardt. All rights reserved.
Copyright © 2004 Alexander Djourik. All rights reserved.

FILE: 10. Pieces, Op. 78 No. 7, Preghiera.flac
Size: 11843020 Hash: 84BCC60AAE35272F287ADF9EEC7690AE Accuracy: -m0
Conclusion: CDDA 100%
Signature: 470D7EDF4B12FE48413FF40BAC8A0D21CD9427BC
FILE: 09. Pieces, Op. 78 No. 6, Oriental Serenade.flac
Size: 5136497 Hash: 55A22FEFD56B34720B49B28DEF09ADAA Accuracy: -m0
Conclusion: CDDA 100%
Signature: F2C0F96878AD0CB5A63C3831853BE8D47FFC75E8
FILE: 08. Pieces, Op. 78 No. 5, Finnish Romance.flac
Size: 6586501 Hash: 8C97CA54F98C2DD8ED1337FE8732EB60 Accuracy: -m0
Conclusion: CDDA 100%
Signature: A09906733EC36B9D4E17EBF6F2A776ABCD133B48
FILE: 07. Pieces, Op. 78 No. 4, The Fiddler.flac
Size: 4924788 Hash: E16955B250F37C9C6DD7E7FDFD978D46 Accuracy: -m0
Conclusion: CDDA 99%
Signature: 917DFFE952140D26308AB1CF927B521EEEB282FD
FILE: 06. Pieces, Op. 78 No. 3, Canzonetta.flac
Size: 9703447 Hash: 942C23E3CDF4A91FBEEAB49F13719C4C Accuracy: -m0
Conclusion: CDDA 100%
Signature: 31E32B97D4A7BF2C6464ADA4177B8BF1BC77C2CC
FILE: 05. Pieces, Op. 78 No. 2, Humoresque.flac
Size: 9068427 Hash: AA0461C9CB643CD3E356D8FEC9CCFD52 Accuracy: -m0
Conclusion: CDDA 100%
Signature: AEFD09C438529DC03C1A4CCA70BBFBEDFB89972A
FILE: 04. Pieces, Op. 78 No. 1, Prelude.flac
Size: 8677549 Hash: 0848BBC9D2E6F2C3D2F866AB19E498DB Accuracy: -m0
Conclusion: CDDA 100%
Signature: CCD645C17263DB231B3E1B792A50EF64B87F837A
FILE: 03. Piano Concerto No. 3, Op. 41 Metamorphoses.flac
Size: 76275661 Hash: 2311E657011CB0C7370BB94636E94258 Accuracy: -m0
Conclusion: CDDA 100%
Signature: 79FA118EAA19D26BA2AD0242D6D2FFB4E30768D8
FILE: 02. Piano Concerto No. 1 in G Minor, Op. 13.flac
Size: 55275928 Hash: 60A2BBFBC92DB107E115EB33FF08B891 Accuracy: -m0
Conclusion: CDDA 99%
Signature: 2695AD2615BEF8500929ADACED45F22B382C689E
FILE: 01. Piano Concerto No. 2, Op. 33 The River.flac
Size: 91389933 Hash: 386307F8FA971B6EDBB83CEF1E025E60 Accuracy: -m0
Conclusion: CDDA 100%
Signature: A640F6E285B3919B2442129E515A5A09F620FD4E

DR
foobar2000 1.3.7 / Dynamic Range Meter 1.1.1
log date: 2017-10-11 19:29:17

––––––––––––––––––––––––––––––––––––––––
Analyzed: Henri Sigfridsson / Palmgren: The River (1-3)
Jan Söderblom / Palmgren: The River (4-10)
––––––––––––––––––––––––––––––––––––––––

DR Peak RMS Duration Track
––––––––––––––––––––––––––––––––––––––––
DR17 -0.38 dB -23.64 dB 23:30 01-Piano Concerto No. 2, Op. 33 "The River"
DR18 -0.41 dB -25.02 dB 14:54 02-Piano Concerto No. 1 in G Minor, Op. 13
DR17 -0.38 dB -22.80 dB 18:48 03-Piano Concerto No. 3, Op. 41 "Metamorphoses"
DR12 -8.81 dB -26.88 dB 2:07 04-Pieces, Op. 78: No. 1, Prelude
DR16 -4.88 dB -24.55 dB 2:08 05-Pieces, Op. 78: No. 2, Humoresque
DR12 -9.63 dB -27.89 dB 2:42 06-Pieces, Op. 78: No. 3, Canzonetta
DR12 -5.16 dB -22.22 dB 1:09 07-Pieces, Op. 78: No. 4, The Fiddler
DR13 -8.96 dB -28.32 dB 1:49 08-Pieces, Op. 78: No. 5, Finnish Romance
DR13 -8.23 dB -27.32 dB 1:24 09-Pieces, Op. 78: No. 6, Oriental Serenade
DR15 -9.41 dB -30.86 dB 3:20 10-Pieces, Op. 78: No. 7, Preghiera
––––––––––––––––––––––––––––––––––––––––

Number of tracks: 10
Official DR value: DR14

Samplerate: 44100 Hz
Channels: 2
Bits per sample: 16
Bitrate: 470 kbps
Codec: FLAC
================================================================================

Henri Sigfridsson, Jan Söderblom & Pori Sinfonietta - Palmgren: The River (2017)
Thanks to the Original customer.

Henri Sigfridsson, Jan Söderblom & Pori Sinfonietta – Palmgren: The River (2017) Download, Warez, DDL, Free, Full Album, Torrent, Legal.

Download