Heaven & Earth – Refuge (1973)

Download
Heaven & Earth - Refuge (1973)

Heaven & Earth – Refuge (1973)
EAC | Flac(Image) + Cue + Log & MP3 CBR 320Kbps
2011 | Lion Productions, LION 652 | ~ 374 or 173 Mb | Scans(jpg) -> 36 Mb
Folk Rock, Ethereal, Southern Rock, Psychedelic

HEAVEN AND EARTH were an American female duo formed in 1969 in Pennsylvania, moving on to New York and existing through regional touring until their dissolution in 1974. The group released one album (‘Refuge’) in 1973 to critical acclaim but little commercial success. The recording was reissued by Lion Productions nearly forty years after its initial release.

~ progarchives

Heaven & Earth - Refuge (1973)

Heaven & Earth – Refuge (1973):

Heaven & Earth - Refuge (1973)

Tracklist:

01. Jenny (3:22)
02. Voice In The Wind (2:37)
03. To A Flame (2:30)
04. Tomorrow Is A Long Time (4:13)
05. Refuge (2:36)
06. Sixty Years On (3:51)
07. Song For Craig (2:48)
08. Tell Me How To Know You (2:44)
09. A Light Is Shining (2:37)
10. Feel The Spirit (4:47)

Bonus Tracks – Singles:
11. Voice In The Wind (Single mix) (2:38)
12. Jenny (Single mix) (2:59)
13. Home For Christmas (Single A-side) (3:00)
14. Country Women (Single B-side) (2:28)

Unreleased:
15. We All Need A Friend (1:59)
16. You’re The Reason (2:30)
17. Unknown (3:00)
18. Joy (3:13)
19. Jenny (Alternate take) (3:35)
20. Voice In The Wind (Alternate take) (1:43)
21. Refuge (Alternate take) (2:25)
22. Song For Craig (Alternate take) (2:50)
23. A Light Is Shining (Alternate take) (3:01)
24. Country Women (Alternate take) (2:28)
25. Hawg For You Baby (2:11)

Musicians:

*Pat Gefell – Guitars, Vocals
*Jo D. Andrews – Vocals
*Charles Chittenden – Guitars
*Bobby Christian – Bongos, Congas, Percussion
*Jorge Dalto – Clavinet, Piano
*Joseph Golan – Violin
*Arthur Lauer – Arp Echoplex, Flute
*Samuel Magad – Strings
*Jerry Sabransky – Strings
*William Schoen – Strings
*Joseph Sciacchitano – Strings
*Don Simmons – Drums
*Fred Spector – Strings
*Ron Steele – Guitars
*Phil Upchurch – Bass
*George Andrews – Organ

Converted to Image (CUETools 2.1.4)

EAC Log
Exact Audio Copy V1.0 beta 1 from 15. November 2010

EAC extraction logfile from 8. December 2011, 20:53

Heaven & Earth / Refuge

Used drive : HL-DT-STDVD-RAM GH22NS30 Adapter: 4 ID: 0

Read mode : Secure
Utilize accurate stream : Yes
Defeat audio cache : Yes
Make use of C2 pointers : No

Read offset correction : 102
Overread into Lead-In and Lead-Out : No
Fill up missing offset samples with silence : Yes
Delete leading and trailing silent blocks : No
Null samples used in CRC calculations : Yes
Used interface : Native Win32 interface for Win NT & 2000
Gap handling : Appended to previous track

Used output format : User Defined Encoder
Selected bitrate : 768 kBit/s
Quality : High
Add ID3 tag : No
Command line compressor : C:Program FilesExact Audio CopyFlacflac.exe
Additional command line options : -8 -V -T "ARTIST=%a" -T "TITLE=%t" -T "ALBUM=%g" -T "DATE=%y" -T "TRACKNUMBER=%n" -T "TOTALTRACKS=%x" -T "GENRE=%m" -T "ALBUMARTIST=%v" -T "ALBUM ARTIST=%v" -T "COMMENT=EAC Secure Mode, Test & Copy, AccurateRip, FLAC -8" %s

TOC of the extracted CD

Track | Start | Length | Start sector | End sector
––––––––––––––––––––––––––––-
1 | 0:00.00 | 3:22.30 | 0 | 15179
2 | 3:22.30 | 2:36.58 | 15180 | 26937
3 | 5:59.13 | 2:30.27 | 26938 | 38214
4 | 8:29.40 | 4:12.56 | 38215 | 57170
5 | 12:42.21 | 2:35.61 | 57171 | 68856
6 | 15:18.07 | 3:50.42 | 68857 | 86148
7 | 19:08.49 | 2:47.56 | 86149 | 98729
8 | 21:56.30 | 2:43.70 | 98730 | 111024
9 | 24:40.25 | 2:37.29 | 111025 | 122828
10 | 27:17.54 | 4:47.11 | 122829 | 144364
11 | 32:04.65 | 2:37.57 | 144365 | 156196
12 | 34:42.47 | 2:58.46 | 156197 | 169592
13 | 37:41.18 | 2:59.60 | 169593 | 183077
14 | 40:41.03 | 2:28.18 | 183078 | 194195
15 | 43:09.21 | 1:59.14 | 194196 | 203134
16 | 45:08.35 | 2:30.22 | 203135 | 214406
17 | 47:38.57 | 3:00.03 | 214407 | 227909
18 | 50:38.60 | 3:13.15 | 227910 | 242399
19 | 53:52.00 | 3:34.62 | 242400 | 258511
20 | 57:26.62 | 1:42.43 | 258512 | 266204
21 | 59:09.30 | 2:25.05 | 266205 | 277084
22 | 61:34.35 | 2:49.38 | 277085 | 289797
23 | 64:23.73 | 3:00.50 | 289798 | 303347
24 | 67:24.48 | 2:28.21 | 303348 | 314468
25 | 69:52.69 | 2:10.53 | 314469 | 324271

Track 1

Filename E:To Be BurnRips1 – Jenny.wav

Pre-gap length 0:00:02.00

Peak level 46.5 %
Extraction speed 1.5 X
Track quality 100.0 %
Test CRC E42177F7
Copy CRC E42177F7
Track not present in AccurateRip database
Copy OK

Track 2

Filename E:To Be BurnRips2 – Voice In The Wind.wav

Pre-gap length 0:00:01.00

Peak level 45.5 %
Extraction speed 1.5 X
Track quality 100.0 %
Test CRC 40BFDBD2
Copy CRC 40BFDBD2
Track not present in AccurateRip database
Copy OK

Track 3

Filename E:To Be BurnRips3 – To A Flame.wav

Pre-gap length 0:00:01.00

Peak level 44.1 %
Extraction speed 1.6 X
Track quality 100.0 %
Test CRC D1432122
Copy CRC D1432122
Track not present in AccurateRip database
Copy OK

Track 4

Filename E:To Be BurnRips4 – Tomorrow Is A Long Time.wav

Pre-gap length 0:00:01.00

Peak level 45.1 %
Extraction speed 1.9 X
Track quality 100.0 %
Test CRC BC2B462B
Copy CRC BC2B462B
Track not present in AccurateRip database
Copy OK

Track 5

Filename E:To Be BurnRips5 – Refuge.wav

Pre-gap length 0:00:01.00

Peak level 45.2 %
Extraction speed 1.9 X
Track quality 100.0 %
Test CRC D9C935CF
Copy CRC D9C935CF
Track not present in AccurateRip database
Copy OK

Track 6

Filename E:To Be BurnRips6 – Sixty Years On.wav

Pre-gap length 0:00:01.00

Peak level 45.1 %
Extraction speed 2.1 X
Track quality 100.0 %
Test CRC B3285E27
Copy CRC B3285E27
Track not present in AccurateRip database
Copy OK

Track 7

Filename E:To Be BurnRips7 – Song For Craig.wav

Pre-gap length 0:00:01.00

Peak level 45.6 %
Extraction speed 2.1 X
Track quality 100.0 %
Test CRC 595C7BE6
Copy CRC 595C7BE6
Track not present in AccurateRip database
Copy OK

Track 8

Filename E:To Be BurnRips8 – Tell Me How To Know You.wav

Pre-gap length 0:00:01.00

Peak level 44.6 %
Extraction speed 2.2 X
Track quality 100.0 %
Test CRC CFD2EFE9
Copy CRC CFD2EFE9
Track not present in AccurateRip database
Copy OK

Track 9

Filename E:To Be BurnRips9 – A Light Is Shining.wav

Pre-gap length 0:00:01.00

Peak level 45.0 %
Extraction speed 1.9 X
Track quality 99.9 %
Test CRC 4D7CCDCA
Copy CRC 4D7CCDCA
Track not present in AccurateRip database
Copy OK

Track 10

Filename E:To Be BurnRips10 – Feel The Spirit.wav

Pre-gap length 0:00:01.00

Peak level 45.3 %
Extraction speed 2.6 X
Track quality 100.0 %
Test CRC 2EEF6D6D
Copy CRC 2EEF6D6D
Track not present in AccurateRip database
Copy OK

Track 11

Filename E:To Be BurnRips11 – Voice In The Wind (Single mix).wav

Pre-gap length 0:00:02.00

Peak level 45.4 %
Extraction speed 2.4 X
Track quality 100.0 %
Test CRC DB6C8C78
Copy CRC DB6C8C78
Track not present in AccurateRip database
Copy OK

Track 12

Filename E:To Be BurnRips12 – Jenny (Single mix).wav

Pre-gap length 0:00:02.00

Peak level 44.3 %
Extraction speed 2.5 X
Track quality 100.0 %
Test CRC 80A09200
Copy CRC 80A09200
Track not present in AccurateRip database
Copy OK

Track 13

Filename E:To Be BurnRips13 – Home For Christmas (Single A-side).wav

Pre-gap length 0:00:02.00

Peak level 44.6 %
Extraction speed 2.6 X
Track quality 100.0 %
Test CRC D8C646FA
Copy CRC D8C646FA
Track not present in AccurateRip database
Copy OK

Track 14

Filename E:To Be BurnRips14 – Country Women (Single B-side).wav

Pre-gap length 0:00:02.00

Peak level 45.4 %
Extraction speed 2.5 X
Track quality 100.0 %
Test CRC 2A8B5C3C
Copy CRC 2A8B5C3C
Track not present in AccurateRip database
Copy OK

Track 15

Filename E:To Be BurnRips15 – We All Need A Friend.wav

Pre-gap length 0:00:02.00

Peak level 45.5 %
Extraction speed 1.9 X
Track quality 99.9 %
Test CRC 58DD847A
Copy CRC 58DD847A
Track not present in AccurateRip database
Copy OK

Track 16

Filename E:To Be BurnRips16 – You’re The Reason.wav

Pre-gap length 0:00:02.00

Peak level 45.3 %
Extraction speed 2.6 X
Track quality 100.0 %
Test CRC 72AA3385
Copy CRC 72AA3385
Track not present in AccurateRip database
Copy OK

Track 17

Filename E:To Be BurnRips17 – Unknown.wav

Pre-gap length 0:00:02.00

Peak level 45.3 %
Extraction speed 2.8 X
Track quality 100.0 %
Test CRC 9440C941
Copy CRC 9440C941
Track not present in AccurateRip database
Copy OK

Track 18

Filename E:To Be BurnRips18 – Joy.wav

Pre-gap length 0:00:02.00

Peak level 45.3 %
Extraction speed 2.9 X
Track quality 100.0 %
Test CRC C0421566
Copy CRC C0421566
Track not present in AccurateRip database
Copy OK

Track 19

Filename E:To Be BurnRips19 – Jenny (Alternate take).wav

Pre-gap length 0:00:02.00

Peak level 45.5 %
Extraction speed 2.6 X
Track quality 99.9 %
Test CRC DB5C5894
Copy CRC DB5C5894
Track not present in AccurateRip database
Copy OK

Track 20

Filename E:To Be BurnRips20 – Voice In The Wind (Alternate take).wav

Pre-gap length 0:00:02.00

Peak level 44.9 %
Extraction speed 2.6 X
Track quality 100.0 %
Test CRC 6B25AE67
Copy CRC 6B25AE67
Track not present in AccurateRip database
Copy OK

Track 21

Filename E:To Be BurnRips21 – Refuge (Alternate take).wav

Pre-gap length 0:00:02.00

Peak level 45.3 %
Extraction speed 2.8 X
Track quality 100.0 %
Test CRC 900A9D7F
Copy CRC 900A9D7F
Track not present in AccurateRip database
Copy OK

Track 22

Filename E:To Be BurnRips22 – Song For Craig (Alternate take).wav

Pre-gap length 0:00:02.00

Peak level 45.1 %
Extraction speed 3.0 X
Track quality 100.0 %
Test CRC DE123105
Copy CRC DE123105
Track not present in AccurateRip database
Copy OK

Track 23

Filename E:To Be BurnRips23 – A Light Is Shining (Alternate take).wav

Pre-gap length 0:00:02.00

Peak level 45.5 %
Extraction speed 2.7 X
Track quality 99.9 %
Test CRC 6BE590F3
Copy CRC 6BE590F3
Track not present in AccurateRip database
Copy OK

Track 24

Filename E:To Be BurnRips24 – Country Women (Alternate take).wav

Pre-gap length 0:00:02.00

Peak level 44.8 %
Extraction speed 3.0 X
Track quality 100.0 %
Test CRC 37EFA594
Copy CRC 37EFA594
Track not present in AccurateRip database
Copy OK

Track 25

Filename E:To Be BurnRips25 – Hawg For You Baby.wav

Pre-gap length 0:00:02.00

Peak level 45.1 %
Extraction speed 3.0 X
Track quality 100.0 %
Test CRC D940DEDA
Copy CRC D940DEDA
Track not present in AccurateRip database
Copy OK

None of the tracks are present in the AccurateRip database

No errors occurred

End of status report

==== Log checksum CE881533321AE43533D190B9DE7FDD0654E9DF11E20C928D532A7A9DE9C96CCC ====

CUETools Log
[CUETools log; Date: 13.10.2017 16:41:29; Version: 2.1.5]
[AccurateRip ID: 00430c50-04aca9cf-5310e319] found.
Track [ CRC | V2 ] Status
01 [0bd0cd06|584f5395] (0+5/5) Accurately ripped
02 [08ab093e|f8e9cc19] (0+5/5) Accurately ripped
03 [e238984c|329bc7b0] (0+5/5) Accurately ripped
04 [8eace0de|fe49aa1d] (0+5/5) Accurately ripped
05 [6acce2b9|e644862c] (0+5/5) Accurately ripped
06 [2aae0555|d0538b62] (0+5/5) Accurately ripped
07 [f9f2c540|9f06bfcb] (0+5/5) Accurately ripped
08 [92ba7a38|698019fb] (0+5/5) Accurately ripped
09 [9f8bbd4b|5cbdf001] (0+5/5) Accurately ripped
10 [ae14c58e|5e7efefb] (0+5/5) Accurately ripped
11 [1e75f703|832deaa9] (0+5/5) Accurately ripped
12 [a8d16b9d|90b5f693] (0+5/5) Accurately ripped
13 [0396f660|a4cb7fc8] (0+5/5) Accurately ripped
14 [baa700b7|e4172753] (0+5/5) Accurately ripped
15 [9d8a6266|b7702349] (0+5/5) Accurately ripped
16 [0e27021a|9f2667d4] (0+5/5) Accurately ripped
17 [efa3738c|211cc9ad] (0+5/5) Accurately ripped
18 [0f70cd7e|e389306a] (0+5/5) Accurately ripped
19 [5f1cbb45|5aab57be] (0+5/5) Accurately ripped
20 [9393a3f2|0ed61f51] (0+5/5) Accurately ripped
21 [d69ecd4b|f2157540] (0+5/5) Accurately ripped
22 [cfdb8ee3|f47d3f17] (0+5/5) Accurately ripped
23 [d5715718|adeb3b10] (0+5/5) Accurately ripped
24 [a9b5617c|763f3ec3] (0+5/5) Accurately ripped
25 [3187e6f2|36eee7aa] (0+5/5) Accurately ripped

Track Peak [ CRC32 ] [W/O NULL] [ LOG ]
– 46,5 [BCB885E7] [BD78B6AF]
01 46,5 [E42177F7] [ACDEA192] CRC32
02 45,5 [40BFDBD2] [547D260D] CRC32
03 44,1 [D1432122] [2B3FE054] CRC32
04 45,1 [BC2B462B] [042268DB] CRC32
05 45,2 [D9C935CF] [A7235E91] CRC32
06 45,1 [B3285E27] [0FFD7FF1] CRC32
07 45,6 [595C7BE6] [84C48341] CRC32
08 44,6 [CFD2EFE9] [7688DF51] CRC32
09 45,0 [4D7CCDCA] [9DC4F893] CRC32
10 45,3 [2EEF6D6D] [5115A0BC] CRC32
11 45,4 [DB6C8C78] [A9C966C0] CRC32
12 44,3 [80A09200] [E1F073B3] CRC32
13 44,6 [D8C646FA] [2CE85D19] CRC32
14 45,4 [2A8B5C3C] [F21E0BD0] CRC32
15 45,5 [58DD847A] [FBFB21CE] CRC32
16 45,3 [72AA3385] [5BADC6AD] CRC32
17 45,3 [9440C941] [22B49A0B] CRC32
18 45,3 [C0421566] [0FFF00D7] CRC32
19 45,5 [DB5C5894] [30732B28] CRC32
20 44,9 [6B25AE67] [BEC0C814] CRC32
21 45,3 [900A9D7F] [60E17F8B] CRC32
22 45,1 [DE123105] [1B2061A6] CRC32
23 45,5 [6BE590F3] [32F8BC89] CRC32
24 44,8 [37EFA594] [04FD823F] CRC32
25 45,1 [D940DEDA] [5CF4748D] CRC32

Heaven & Earth - Refuge (1973)

All thanks go to the original releaser

Download Heaven & Earth – Refuge (1973):

Heaven & Earth – Refuge (1973) Download, Warez, DDL, Free, Full Album, Torrent, Legal.

Download