Hawkwind – Epocheclipse: 30 Year Anthology (1999) [3CD Box Set, 2003] Re-up

Download
Hawkwind - Epocheclipse: 30 Year Anthology (1999) [3CD Box Set, 2003] Re-up

Hawkwind – Epocheclipse: 30 Year Anthology (1999) [3CD Box Set, 2003]
EAC Rip | FLAC: Tracks+Cue+Log | 1.7 Gb | MP3 CBR 320 kbps | 611 Mb | Scans | 40 Mb | TTime: 03:51:34
EMI | 7243 5 43228 2 2
Space Rock, Progressive Rock, Psychedelic Rock

This 3-CD set entitled "Epoch-Eclipse: 30 Year Anthology" was first issued in 1999 by EMI (inheritors of the ownership rights to Hawkwind’s 70’s material, originally held by United Artists and then Charisma) and reissued (late 2003). Disc one covers the period from 1970 to 1974, disc two is 1974-79 and Disc 3 covers 1980-90 onwards.

Hawkwind - Epocheclipse: 30 Year Anthology (1999) [3CD Box Set, 2003] Re-up
Hawkwind
Wikipedia | Allmusic | Amazon
Hawkwind - Epocheclipse: 30 Year Anthology (1999) [3CD Box Set, 2003] Re-up

Disc 1

01. Hurry On Sundown (05:02)
02. Paranoia (Part 2) (04:08)
03. Master Of The Universe (06:07)
04. Children Of The Sun (03:04)
05. Silver Machine (original single version) (04:37)
06. Seven By Seven (original single version) (05:22)
07. Brainstorm (11:30)
08. Space Is Deep (06:16)
09. Urban Guerilla (03:38)
10. Brainbox Pollution (05:40)
11. Sonic Attack (02:51)
12. Orgone Accumulator (09:59)
13. Lost Johnny (03:31)
14. Psychedelic Warlords (single edit) (03:53)

Disc 2

01. Motorhead (03:04)
02. Assault And Battery (Part 1) (05:36)
03. The Golden Void (Part 2) (04:35)
04. Magnu (08:22)
05. Kerb Crawler (03:45)
06. Steppenwolf (09:31)
07. Back On The Streets (02:56)
08. Quark Strangeness & Charm (03:41)
09. Hassan I Shaba (05:21)
10. Spirit Of The Age (07:20)
11. Psi Power (06:06)
12. 25 Years (03:27)
13. High Rise (04:36)
14. Death Trap (03:47)
15. Uncle Sams On Mars (05:39)

Disc 3

01. Shot Down In The Night (Live) (single version) (04:32)
02. Motorway City (06:43)
03. Levitation (05:47)
04. Angels Of Death (05:34)
05. Coded Languages (04:45)
06. Some People Never Die (03:52)
07. Choose Your Masques (05:32)
08. Night Of The Hawks (05:05)
09. Needle Gun (04:08)
10. The War I Survived (05:22)
11. Black Elk Speaks (05:07)
12. Right To Decide (04:19)
13. Sputnik Stan (07:03)
14. Love In Space (04:45)
15. Silver Machine (Infected By THE SOURGE OF THE EARTH) (05:18)

Hawkwind - Epocheclipse: 30 Year Anthology (1999) [3CD Box Set, 2003] Re-up
EAC Log CD1
Exact Audio Copy V0.99 prebeta 5 from 4. May 2009

EAC extraction logfile from 25. July 2010, 10:11

Hawkwind / Epocheclipse 30 Year Anthology

Used drive : HL-DT-STDVD-RAM GSA-H20N Adapter: 3 ID: 0

Read mode : Secure
Utilize accurate stream : Yes
Defeat audio cache : Yes
Make use of C2 pointers : No

Read offset correction : 102
Overread into Lead-In and Lead-Out : No
Fill up missing offset samples with silence : Yes
Delete leading and trailing silent blocks : No
Null samples used in CRC calculations : Yes
Used interface : Installed external ASPI interface
Gap handling : Appended to previous track

Used output format : Internal WAV Routines
Sample format : 44.100 Hz; 16 Bit; Stereo

TOC of the extracted CD

Track | Start | Length | Start sector | End sector
––––––––––––––––––––––––––––-
1 | 0:00.00 | 5:02.32 | 0 | 22681
2 | 5:02.32 | 4:08.00 | 22682 | 41281
3 | 9:10.32 | 6:07.40 | 41282 | 68846
4 | 15:17.72 | 3:04.20 | 68847 | 82666
5 | 18:22.17 | 4:37.43 | 82667 | 103484
6 | 22:59.60 | 5:22.17 | 103485 | 127651
7 | 28:22.02 | 11:30.55 | 127652 | 179456
8 | 39:52.57 | 6:16.13 | 179457 | 207669
9 | 46:08.70 | 3:38.30 | 207670 | 224049
10 | 49:47.25 | 5:40.07 | 224050 | 249556
11 | 55:27.32 | 2:51.33 | 249557 | 262414
12 | 58:18.65 | 9:59.32 | 262415 | 307371
13 | 68:18.22 | 3:31.03 | 307372 | 323199
14 | 71:49.25 | 3:53.22 | 323200 | 340696

Track 1

Filename C:Documents and SettingsDesktopEACHawkwindEpocheclipse 30 Year Anthology1 – Hurry On Sundown.wav

Pre-gap length 0:00:02.00

Peak level 99.8 %
Track quality 100.0 %
Test CRC 1D40F854
Copy CRC 1D40F854
Cannot be verified as accurate (confidence 31) [8EF35802], AccurateRip returned [3A58528F]
Copy OK

Track 2

Filename C:Documents and SettingsDesktopEACHawkwindEpocheclipse 30 Year Anthology2 – Paranoia (Part 2).wav

Peak level 97.2 %
Track quality 100.0 %
Test CRC A4A98B6D
Copy CRC A4A98B6D
Cannot be verified as accurate (confidence 30) [4F0A7019], AccurateRip returned [585EE6BD]
Copy OK

Track 3

Filename C:Documents and SettingsDesktopEACHawkwindEpocheclipse 30 Year Anthology3 – Master Of The Universe.wav

Peak level 99.2 %
Track quality 100.0 %
Test CRC 09096AD6
Copy CRC 09096AD6
Cannot be verified as accurate (confidence 32) [87D13FCD], AccurateRip returned [737DF1EC]
Copy OK

Track 4

Filename C:Documents and SettingsDesktopEACHawkwindEpocheclipse 30 Year Anthology4 – Children Of The Sun.wav

Peak level 98.5 %
Track quality 99.9 %
Test CRC 8DE4B00B
Copy CRC 8DE4B00B
Cannot be verified as accurate (confidence 31) [59D063C0], AccurateRip returned [3F74C6D6]
Copy OK

Track 5

Filename C:Documents and SettingsDesktopEACHawkwindEpocheclipse 30 Year Anthology5 – Silver Machine (Original Single Version).wav

Peak level 100.0 %
Track quality 100.0 %
Test CRC 6E3DAB98
Copy CRC 6E3DAB98
Cannot be verified as accurate (confidence 33) [7FAC6D66], AccurateRip returned [F0BA595D]
Copy OK

Track 6

Filename C:Documents and SettingsDesktopEACHawkwindEpocheclipse 30 Year Anthology6 – Seven By Seven (Original Single Version).wav

Peak level 99.8 %
Track quality 100.0 %
Test CRC 410FAE9B
Copy CRC 410FAE9B
Cannot be verified as accurate (confidence 31) [ACEA350E], AccurateRip returned [636FB4FB]
Copy OK

Track 7

Filename C:Documents and SettingsDesktopEACHawkwindEpocheclipse 30 Year Anthology7 – Brainstorm.wav

Pre-gap length 0:00:00.45

Peak level 100.0 %
Track quality 100.0 %
Test CRC 5C4B8EAE
Copy CRC 5C4B8EAE
Cannot be verified as accurate (confidence 31) [D171AD7E], AccurateRip returned [83C6BE33]
Copy OK

Track 8

Filename C:Documents and SettingsDesktopEACHawkwindEpocheclipse 30 Year Anthology8 – Space Is Deep.wav

Peak level 99.3 %
Track quality 100.0 %
Test CRC 2C5012B2
Copy CRC 2C5012B2
Cannot be verified as accurate (confidence 32) [1DEA3263], AccurateRip returned [D51D0F04]
Copy OK

Track 9

Filename C:Documents and SettingsDesktopEACHawkwindEpocheclipse 30 Year Anthology9 – Urban Guerilla.wav

Pre-gap length 0:00:00.53

Peak level 100.0 %
Track quality 100.0 %
Test CRC D688977F
Copy CRC D688977F
Cannot be verified as accurate (confidence 31) [C7F109FE], AccurateRip returned [DFEAB3BC]
Copy OK

Track 10

Filename C:Documents and SettingsDesktopEACHawkwindEpocheclipse 30 Year Anthology10 – Brainbox Pollution.wav

Peak level 99.9 %
Track quality 100.0 %
Test CRC F0BA4EFB
Copy CRC F0BA4EFB
Cannot be verified as accurate (confidence 30) [F9BF78BD], AccurateRip returned [A7441519]
Copy OK

Track 11

Filename C:Documents and SettingsDesktopEACHawkwindEpocheclipse 30 Year Anthology11 – Sonic Attack.wav

Peak level 100.0 %
Track quality 100.0 %
Test CRC EC9E2A59
Copy CRC EC9E2A59
Cannot be verified as accurate (confidence 30) [6EF5A004], AccurateRip returned [688DC050]
Copy OK

Track 12

Filename C:Documents and SettingsDesktopEACHawkwindEpocheclipse 30 Year Anthology12 – Orgone Accumulator.wav

Peak level 99.8 %
Track quality 100.0 %
Test CRC 55CF9B5F
Copy CRC 55CF9B5F
Cannot be verified as accurate (confidence 31) [8FAE61BA], AccurateRip returned [D6F27BB3]
Copy OK

Track 13

Filename C:Documents and SettingsDesktopEACHawkwindEpocheclipse 30 Year Anthology13 – Lost Johnny.wav

Pre-gap length 0:00:00.20

Peak level 99.7 %
Track quality 100.0 %
Test CRC 90662298
Copy CRC 90662298
Cannot be verified as accurate (confidence 31) [938BE20C], AccurateRip returned [F22AB551]
Copy OK

Track 14

Filename C:Documents and SettingsDesktopEACHawkwindEpocheclipse 30 Year Anthology14 – Psychedellic Warlords (Single Edit).wav

Pre-gap length 0:00:01.18

Peak level 99.6 %
Track quality 100.0 %
Test CRC A8186C9A
Copy CRC A8186C9A
Cannot be verified as accurate (confidence 29) [4584DB15], AccurateRip returned [4236923D]
Copy OK

No tracks could be verified as accurate
You may have a different pressing from the one(s) in the database

No errors occurred

End of status report

EAC Log CD2
Exact Audio Copy V0.99 prebeta 5 from 4. May 2009

EAC extraction logfile from 25. July 2010, 11:22

Hawkwind / Epocheclipse 30 Year Anthology

Used drive : HL-DT-STDVD-RAM GSA-H20N Adapter: 3 ID: 0

Read mode : Secure
Utilize accurate stream : Yes
Defeat audio cache : Yes
Make use of C2 pointers : No

Read offset correction : 102
Overread into Lead-In and Lead-Out : No
Fill up missing offset samples with silence : Yes
Delete leading and trailing silent blocks : No
Null samples used in CRC calculations : Yes
Used interface : Installed external ASPI interface
Gap handling : Appended to previous track

Used output format : Internal WAV Routines
Sample format : 44.100 Hz; 16 Bit; Stereo

TOC of the extracted CD

Track | Start | Length | Start sector | End sector
––––––––––––––––––––––––––––-
1 | 0:00.00 | 3:04.02 | 0 | 13801
2 | 3:04.02 | 5:36.63 | 13802 | 39064
3 | 8:40.65 | 4:35.10 | 39065 | 59699
4 | 13:16.00 | 8:22.65 | 59700 | 97414
5 | 21:38.65 | 3:45.42 | 97415 | 114331
6 | 25:24.32 | 9:31.50 | 114332 | 157206
7 | 34:56.07 | 2:56.23 | 157207 | 170429
8 | 37:52.30 | 3:41.55 | 170430 | 187059
9 | 41:34.10 | 5:21.00 | 187060 | 211134
10 | 46:55.10 | 7:20.05 | 211135 | 244139
11 | 54:15.15 | 6:06.15 | 244140 | 271604
12 | 60:21.30 | 3:27.15 | 271605 | 287144
13 | 63:48.45 | 4:36.47 | 287145 | 307891
14 | 68:25.17 | 3:47.70 | 307892 | 324986
15 | 72:13.12 | 5:39.68 | 324987 | 350479

Track 1

Filename C:Documents and SettingsDesktopEACHawkwindEpocheclipse 30 Year Anthology1 – Motorhead.wav

Pre-gap length 0:00:02.00

Peak level 100.0 %
Track quality 100.0 %
Test CRC CA9820AA
Copy CRC CA9820AA
Cannot be verified as accurate (confidence 33) [75DF856E], AccurateRip returned [2A345E67]
Copy OK

Track 2

Filename C:Documents and SettingsDesktopEACHawkwindEpocheclipse 30 Year Anthology2 – Assault and Battery (Part 1).wav

Peak level 100.0 %
Track quality 100.0 %
Test CRC 42A8B278
Copy CRC 42A8B278
Cannot be verified as accurate (confidence 33) [BC986695], AccurateRip returned [5417CA7D]
Copy OK

Track 3

Filename C:Documents and SettingsDesktopEACHawkwindEpocheclipse 30 Year Anthology3 – The Golden Void (Part 2).wav

Peak level 100.0 %
Track quality 100.0 %
Test CRC 10E9A6C1
Copy CRC 10E9A6C1
Cannot be verified as accurate (confidence 33) [F4751697], AccurateRip returned [86D80D4B]
Copy OK

Track 4

Filename C:Documents and SettingsDesktopEACHawkwindEpocheclipse 30 Year Anthology4 – Magnu.wav

Peak level 100.0 %
Track quality 100.0 %
Test CRC A17617E7
Copy CRC A17617E7
Cannot be verified as accurate (confidence 33) [EF919752], AccurateRip returned [E35A712E]
Copy OK

Track 5

Filename C:Documents and SettingsDesktopEACHawkwindEpocheclipse 30 Year Anthology5 – Kerb Crawler.wav

Pre-gap length 0:00:00.38

Peak level 100.0 %
Track quality 100.0 %
Test CRC 59E26A01
Copy CRC 59E26A01
Cannot be verified as accurate (confidence 33) [7279CE55], AccurateRip returned [0C8A6E4A]
Copy OK

Track 6

Filename C:Documents and SettingsDesktopEACHawkwindEpocheclipse 30 Year Anthology6 – Steppenwolf.wav

Peak level 100.0 %
Track quality 100.0 %
Test CRC CBBAD6DA
Copy CRC CBBAD6DA
Cannot be verified as accurate (confidence 32) [52101737], AccurateRip returned [BC106941]
Copy OK

Track 7

Filename C:Documents and SettingsDesktopEACHawkwindEpocheclipse 30 Year Anthology7 – Back On the Streets.wav

Peak level 100.0 %
Track quality 99.9 %
Test CRC 2A036D5D
Copy CRC 2A036D5D
Cannot be verified as accurate (confidence 32) [3C43B8A6], AccurateRip returned [2269D531]
Copy OK

Track 8

Filename C:Documents and SettingsDesktopEACHawkwindEpocheclipse 30 Year Anthology8 – Quark Strangeness & Charm.wav

Peak level 100.0 %
Track quality 100.0 %
Test CRC 4A7D85C5
Copy CRC 4A7D85C5
Cannot be verified as accurate (confidence 33) [2B12AFA7], AccurateRip returned [39AD7236]
Copy OK

Track 9

Filename C:Documents and SettingsDesktopEACHawkwindEpocheclipse 30 Year Anthology9 – Hassan I Shaba.wav

Peak level 100.0 %
Track quality 100.0 %
Test CRC 34F754AB
Copy CRC 34F754AB
Cannot be verified as accurate (confidence 33) [24860EED], AccurateRip returned [4CE2E170]
Copy OK

Track 10

Filename C:Documents and SettingsDesktopEACHawkwindEpocheclipse 30 Year Anthology10 – Spirit Of The Age.wav

Pre-gap length 0:00:00.33

Peak level 100.0 %
Track quality 100.0 %
Test CRC 41B50F73
Copy CRC 41B50F73
Cannot be verified as accurate (confidence 32) [5EE829F6], AccurateRip returned [B4DB54A2]
Copy OK

Track 11

Filename C:Documents and SettingsDesktopEACHawkwindEpocheclipse 30 Year Anthology11 – Psi Power.wav

Pre-gap length 0:00:00.40

Peak level 100.0 %
Track quality 100.0 %
Test CRC 59668B8F
Copy CRC 59668B8F
Cannot be verified as accurate (confidence 32) [E9480BBE], AccurateRip returned [53E8E18A]
Copy OK

Track 12

Filename C:Documents and SettingsDesktopEACHawkwindEpocheclipse 30 Year Anthology12 – 25 Years.wav

Peak level 100.0 %
Track quality 99.9 %
Test CRC 1CF03A53
Copy CRC 1CF03A53
Cannot be verified as accurate (confidence 33) [09CC23C8], AccurateRip returned [D224AF8A]
Copy OK

Track 13

Filename C:Documents and SettingsDesktopEACHawkwindEpocheclipse 30 Year Anthology13 – High Rise.wav

Peak level 100.0 %
Track quality 99.9 %
Test CRC 76315BDD
Copy CRC 76315BDD
Cannot be verified as accurate (confidence 34) [D276BEB9], AccurateRip returned [CDED8AAF]
Copy OK

Track 14

Filename C:Documents and SettingsDesktopEACHawkwindEpocheclipse 30 Year Anthology14 – Death Trap.wav

Peak level 100.0 %
Track quality 100.0 %
Test CRC BCA2BF74
Copy CRC BCA2BF74
Cannot be verified as accurate (confidence 32) [5E8BA09B], AccurateRip returned [F0390825]
Copy OK

Track 15

Filename C:Documents and SettingsDesktopEACHawkwindEpocheclipse 30 Year Anthology15 – Uncle Sams On Mars.wav

Peak level 100.0 %
Track quality 100.0 %
Test CRC DE9E4E01
Copy CRC DE9E4E01
Cannot be verified as accurate (confidence 32) [1154B717], AccurateRip returned [BAFA1C16]
Copy OK

No tracks could be verified as accurate
You may have a different pressing from the one(s) in the database

No errors occurred

End of status report

EAC Log CD3
Exact Audio Copy V0.99 prebeta 5 from 4. May 2009

EAC extraction logfile from 26. July 2010, 9:11

Hawkwind / Epocheclipse

Used drive : HL-DT-STDVD-RAM GSA-H20N Adapter: 3 ID: 0

Read mode : Secure
Utilize accurate stream : Yes
Defeat audio cache : Yes
Make use of C2 pointers : No

Read offset correction : 102
Overread into Lead-In and Lead-Out : No
Fill up missing offset samples with silence : Yes
Delete leading and trailing silent blocks : No
Null samples used in CRC calculations : Yes
Used interface : Installed external ASPI interface
Gap handling : Appended to previous track

Used output format : Internal WAV Routines
Sample format : 44.100 Hz; 16 Bit; Stereo

TOC of the extracted CD

Track | Start | Length | Start sector | End sector
––––––––––––––––––––––––––––-
1 | 0:00.00 | 4:32.60 | 0 | 20459
2 | 4:32.60 | 6:43.17 | 20460 | 50701
3 | 11:16.02 | 5:47.58 | 50702 | 76784
4 | 17:03.60 | 5:34.52 | 76785 | 101886
5 | 22:38.37 | 4:45.10 | 101887 | 123271
6 | 27:23.47 | 3:52.35 | 123272 | 140706
7 | 31:16.07 | 5:32.48 | 140707 | 165654
8 | 36:48.55 | 5:05.17 | 165655 | 188546
9 | 41:53.72 | 4:08.38 | 188547 | 207184
10 | 46:02.35 | 5:22.20 | 207185 | 231354
11 | 51:24.55 | 5:07.40 | 231355 | 254419
12 | 56:32.20 | 4:19.22 | 254420 | 273866
13 | 60:51.42 | 7:03.68 | 273867 | 305659
14 | 67:55.35 | 4:45.12 | 305660 | 327046
15 | 72:40.47 | 5:18.33 | 327047 | 350929

Track 1

Filename C:Documents and SettingsDesktopEACHawkwindEpocheclipse1 – Shot Down In the Night (Live) (Single Version).wav

Pre-gap length 0:00:02.00

Peak level 100.0 %
Track quality 100.0 %
Test CRC 0C5B39C9
Copy CRC 0C5B39C9
Cannot be verified as accurate (confidence 32) [17D233F5], AccurateRip returned [996410A2]
Copy OK

Track 2

Filename C:Documents and SettingsDesktopEACHawkwindEpocheclipse2 – Motorway City.wav

Pre-gap length 0:00:00.05

Peak level 100.0 %
Track quality 100.0 %
Test CRC CC8D8A2D
Copy CRC CC8D8A2D
Cannot be verified as accurate (confidence 33) [987B1FF8], AccurateRip returned [883AE659]
Copy OK

Track 3

Filename C:Documents and SettingsDesktopEACHawkwindEpocheclipse3 – Levitation.wav

Peak level 100.0 %
Track quality 100.0 %
Test CRC D21B9255
Copy CRC D21B9255
Cannot be verified as accurate (confidence 33) [D65531B9], AccurateRip returned [41885C82]
Copy OK

Track 4

Filename C:Documents and SettingsDesktopEACHawkwindEpocheclipse4 – Angels Of Death.wav

Peak level 100.0 %
Track quality 100.0 %
Test CRC B7FBDD9E
Copy CRC B7FBDD9E
Cannot be verified as accurate (confidence 33) [24598D06], AccurateRip returned [76A19DCE]
Copy OK

Track 5

Filename C:Documents and SettingsDesktopEACHawkwindEpocheclipse5 – Coded Languages.wav

Peak level 100.0 %
Track quality 100.0 %
Test CRC 66E7CF37
Copy CRC 66E7CF37
Cannot be verified as accurate (confidence 33) [D398238A], AccurateRip returned [E11C223A]
Copy OK

Track 6

Filename C:Documents and SettingsDesktopEACHawkwindEpocheclipse6 – Some People Never Die.wav

Peak level 100.0 %
Track quality 100.0 %
Test CRC 200B7C23
Copy CRC 200B7C23
Cannot be verified as accurate (confidence 33) [D728AE51], AccurateRip returned [1F26672E]
Copy OK

Track 7

Filename C:Documents and SettingsDesktopEACHawkwindEpocheclipse7 – Choose Your Masques.wav

Pre-gap length 0:00:01.27

Peak level 100.0 %
Track quality 100.0 %
Test CRC EF39D97E
Copy CRC EF39D97E
Cannot be verified as accurate (confidence 33) [BE3BB9F8], AccurateRip returned [19CD61DB]
Copy OK

Track 8

Filename C:Documents and SettingsDesktopEACHawkwindEpocheclipse8 – Night Of The Hawks.wav

Pre-gap length 0:00:00.38

Peak level 100.0 %
Track quality 100.0 %
Test CRC 7CB530B1
Copy CRC 7CB530B1
Cannot be verified as accurate (confidence 33) [E00565C2], AccurateRip returned [0A39FECC]
Copy OK

Track 9

Filename C:Documents and SettingsDesktopEACHawkwindEpocheclipse9 – Needle Gun.wav

Peak level 100.0 %
Track quality 100.0 %
Test CRC E7C29D2E
Copy CRC E7C29D2E
Cannot be verified as accurate (confidence 33) [4EB615A1], AccurateRip returned [2BE2CD37]
Copy OK

Track 10

Filename C:Documents and SettingsDesktopEACHawkwindEpocheclipse10 – The War I Survived.wav

Pre-gap length 0:00:00.03

Peak level 100.0 %
Track quality 100.0 %
Test CRC FE1CC5B3
Copy CRC FE1CC5B3
Cannot be verified as accurate (confidence 33) [3400745C], AccurateRip returned [CE58272D]
Copy OK

Track 11

Filename C:Documents and SettingsDesktopEACHawkwindEpocheclipse11 – Black Elk Speaks.wav

Peak level 100.0 %
Track quality 100.0 %
Test CRC 1385ED19
Copy CRC 1385ED19
Cannot be verified as accurate (confidence 33) [843524E8], AccurateRip returned [9BF023AE]
Copy OK

Track 12

Filename C:Documents and SettingsDesktopEACHawkwindEpocheclipse12 – Right To Decide.wav

Peak level 100.0 %
Track quality 100.0 %
Test CRC F3E3D6CD
Copy CRC F3E3D6CD
Cannot be verified as accurate (confidence 33) [9F0B09AA], AccurateRip returned [E86AF28D]
Copy OK

Track 13

Filename C:Documents and SettingsDesktopEACHawkwindEpocheclipse13 – Sputnik Stan.wav

Peak level 100.0 %
Track quality 100.0 %
Test CRC 2B076465
Copy CRC 2B076465
Cannot be verified as accurate (confidence 33) [2C098F1A], AccurateRip returned [7611E209]
Copy OK

Track 14

Filename C:Documents and SettingsDesktopEACHawkwindEpocheclipse14 – Love In Space.wav

Pre-gap length 0:00:00.20

Peak level 100.0 %
Track quality 100.0 %
Test CRC F2EDAF4C
Copy CRC F2EDAF4C
Cannot be verified as accurate (confidence 32) [FC6A362C], AccurateRip returned [3D60D8DD]
Copy OK

Track 15

Filename C:Documents and SettingsDesktopEACHawkwindEpocheclipse15 – Silver Machine (Infected By THE SOURGE OF THE EARTH).wav

Peak level 100.0 %
Track quality 99.9 %
Test CRC 88293B0D
Copy CRC 88293B0D
Cannot be verified as accurate (confidence 29) [3582A439], AccurateRip returned [8311D802]
Copy OK

No tracks could be verified as accurate
You may have a different pressing from the one(s) in the database

No errors occurred

End of status report

Many thanks to the original uploader: yura77

SEE also:
Invisible Opera Company Of Tibet 1987 Invisible Opera Company Of Tibet

Robert Calvert 1974 Captain Lockheed And The Starfighters [Remastered 2007]
Robert Calvert 1975 Lucky Lief And The Longships [Remastered 2007]

……
Welcome to My Blog for more wonderful music!
……

Hawkwind – Epocheclipse: 30 Year Anthology (1999) [3CD Box Set, 2003] Re-up Download, Warez, DDL, Free, Full Album, Torrent, Legal.

Download