Hawkwind – Doremi Fasol Latido (1972) [EMI Records Ltd. 2001]

Download
Hawkwind - Doremi Fasol Latido (1972) [EMI Records Ltd. 2001]

Hawkwind – Doremi Fasol Latido (1972) [EMI Records Ltd. 2001]
EAC Rip | FLAC: Image+Cue+Log | 382 Mb | MP3 CBR 320 kbps | 150 Mb | Scans | 48 Mb | Time: 59:07
EMI Records Ltd. | 7243 5 30031 2 8
Space Rock, Progressive Rock, Psychedelic Rock

Doremi Fasol Latido is the third studio album by English space rock band Hawkwind. It reached No. 14 on the UK album charts. Doremi Fasol Latido may not be Hawkwind’s most renowned album, but it carries the same type of prog rock spaciness as their first two releases. Even though the keyboard playing is trimmed down just a tad, the introduction of Ian Kilmister, otherwise known as Lemmy of Motörhead fame, makes up for it.

Hawkwind - Doremi Fasol Latido (1972) [EMI Records Ltd. 2001]
Hawkwind
Wikipedia | Allmusic | Amazon

Track Listing

01. Brainstorm (11:33)
02. Space Is Deep (06:23)
03. One Change (00:51)
04. Lord Of Light (06:59)
05. Down Through The Night (03:05)
06. Time We Left This World Today (08:44)
07. The Watcher (04:17)

Bonus Tracks
08. Urban Guerilla (03:43)
09. Brainbox Pollution (05:43)
10. Lord Of Light (Single Version Edit) (04:02)
11. Ejection (Previously Unreleased Version) (03:48)

Produced by Hawkwind (Dave & Del) and Roy Baker (track: 11)

The Band

• Dave Brock: 6- and 12-string acoustic guitar, electric guitar, vocals
• Nik Turner: saxophone, flute, vocals
• Lemmy (Ian Kilmister): bass guitar, acoustic guitar, vocals
• Dik Mik (Michael Davies): synthesizer
• Del Dettmar: synthesizer
• Simon King: drums
• Robert Calvert: vocals on "Urban Guerrilla" and "Ejection"
• Paul Rudolph: guitars on "Ejection"

Notes

Tracks 1, 2, 3, 4, 5, 6, 7 at Rockfield Studios, Monmouth – September & October 1972
Tracks 8, 9 at Olympic Studios, Barnes, London – June 1973
Track 10 at Rockfield Studios, Monmouth – May 1972

Digitally Remastered by Paul Cobbold and Peter Mew at Abbey Road Studios, London.

Digital Remasters ℗ 1996 The copyright in these sound recordings is owned by EMI Records Ltd.
℗ 1996 The copyright in this compilation is owned by EMI Records Ltd.
© 2001 EMI Records Ltd. This label copy information is subject to copyright protection. All Rights Reserved. © 2001 EMI Records Ltd.

EAC Log
Exact Audio Copy V0.99 prebeta 3 from 28. July 2007

EAC extraction logfile from 2. December 2007, 12:53

Hawkwind / Doremi Fasol Latido

Used drive : HL-DT-STDVD-ROM GDR8162B Adapter: 1 ID: 0

Read mode : Secure
Utilize accurate stream : Yes
Defeat audio cache : Yes
Make use of C2 pointers : No

Read offset correction : 102
Overread into Lead-In and Lead-Out : No
Fill up missing offset samples with silence : Yes
Delete leading and trailing silent blocks : No
Null samples used in CRC calculations : Yes
Used interface : Installed external ASPI interface

Used output format : Monkey’s Audio Lossless Encoder
Selected bitrate : Fast Lossless Compression
Quality : High
Add ID3 tag : Yes
Command line compressor : C:ProgrammiMonkey’s AudioMAC.exe

TOC of the extracted CD

Track | Start | Length | Start sector | End sector
––––––––––––––––––––––––––––-
1 | 0:00.32 | 11:33.33 | 32 | 52039
2 | 11:33.65 | 6:22.45 | 52040 | 80734
3 | 17:56.35 | 0:50.45 | 80735 | 84529
4 | 18:47.05 | 6:58.42 | 84530 | 115921
5 | 25:45.47 | 3:04.50 | 115922 | 129771
6 | 28:50.22 | 8:43.68 | 129772 | 169064
7 | 37:34.15 | 4:17.20 | 169065 | 188359
8 | 41:51.35 | 3:42.35 | 188360 | 205044
9 | 45:33.70 | 5:43.12 | 205045 | 230781
10 | 51:17.07 | 4:01.45 | 230782 | 248901
11 | 55:18.52 | 3:47.60 | 248902 | 265986

Range status and errors

Selected range

Filename F:Lavori in corsoHawkwind – Doremi Fasol Latido (Remastered)Hawkwind – Doremi Fasol Latido (Remastered).wav

Peak level 98.1 %
Range quality 100.0 %
Copy CRC CF3F4523
Copy OK

No errors occurred

End of status report

Many thanks to the original uploader: yura77

SEE also:
Hawkwind 1970 Hawkwind [EMI Records Ltd. 2001]
Hawkwind 1971 In Search Of Space [EMI Records Ltd. 2001]
Hawkwind 1994 25 Years On [4CD Box Set]
Hawkwind 1999 Epocheclipse: 30 Year Anthology [3CD Box Set, 2003]

Invisible Opera Company Of Tibet 1987 Invisible Opera Company Of Tibet

The Pretty Things 2001 The Psychedelic Years 1966-1970 [2CD Set]

Robert Calvert 1974 Captain Lockheed And The Starfighters [Remastered 2007]
Robert Calvert 1975 Lucky Lief And The Longships [Remastered 2007]

……
Welcome to My Blog for more wonderful music!
……

Hawkwind – Doremi Fasol Latido (1972) [EMI Records Ltd. 2001] Download, Warez, DDL, Free, Full Album, Torrent, Legal.

Download