Hawaiian Time – Life Goes On (2008)

Download
Hawaiian Time - Life Goes On (2008)

Hawaiian Time – Life Goes On (2008)
EAC Rip | FLAC with CUE and log | scans | 498 mb
MP3 CBR 320kbps | RAR | 182 mb
Genre: reggae, pop reggae, Jawaiian

Life Goes On is the 2008 album by Hawaiian Jawaiian group Hawaiian Time. The phrase "Hawaiian time" is a pidgin English term for arriving or doing something later than the established norm, to be lazy or laid back. You may say their music has a nice laid back reggae vibe to it, island style.

Hawaiian Time - Life Goes On (2008)

01. Kamehameha The Great
02. The Girl Is Hot
03. Island Beauty
04. You Turn Me On
05. There For You
06. I Can’t Wait
07. Praying On A Dream
08. Your Lips On Mine
09. I Want To Show You
10. Life Goes On
11. Wrap Your Arms Around Me
12. Imua Kamehameha
13. GI4U
14. What Did I Say
15. Victims Of Love
16. Come Out Girl
17. Wish You Were My Girl
18. Hang Over

Kekai Romero-lead, rhythm & acoustic guitar, ukulele, background vocals, lead vocals (tracks 1-3, 10-13, 15 & 18)
John Mahina Romero-live bass, bass & drum programming, sequences, background vocals, lead vocals (tracks 5-6 & 16)
Louis Pine Romero-bass, ukulele, background vocals, lead vocals (tracks 4, 9, 14 & 17)
Jason Swangel-sequencer, programming, keyboard strings, bass drums, piano, shakuhachi, background vocals
Julian Kamauna Romero-sequences, background vocals, lead vocals (tracks 7 & 8)

Guests Musicians
Wendell Ching-drums (track 5)
Tony Alexander-guitar (track 1)
John Barrucus Davis-drums (tracks 7 & 8)
Ryan Jah Gumby Murakama-bass (tracks 1, 5 & 7)
Anela Kahiamoe-lead guitar (tracks 8 & 10)
Lloyd Sing-conch shell & imua (track 1)
Dawn Kashima Romero-lead vocals (track 6)
Mariana Klemens-lead vocals (track 5)
Fafaiese Emosi-rap (track 9)

Produced by Lana’i Bouz Records & Romero Productions
Recorded by Julian Kamauna Romero & John Mahina Romero
Mixed by Wendell Ching

EAC Log
EAC extraction logfile from 26. June 2017, 23:21 for CD
Hawaiian Time / Life Goes On

Used drive : TSSTcorpDVD+-RW TS-H653B Adapter: 2 ID: 0
Read mode : Secure with NO C2, accurate stream, disable cache
Read offset correction : 6
Overread into Lead-In and Lead-Out : No

Used output format : Internal WAV Routines
44.100 Hz; 16 Bit; Stereo

Other options :
Fill up missing offset samples with silence : Yes
Delete leading and trailing silent blocks : No
Native Win32 interface for Win NT & 2000

Track 1
Filename C:Documents and SettingscuntfistDesktopFLAC’s15Hawaiian Time – Life Goes On (2008) [FLAC]1 – Kamehameha The Great.wav

Pre-gap length 0:00:02.00

Peak level 98.8 %
Track quality 100.0 %
Test CRC C50C3EEC
Copy CRC C50C3EEC
Copy OK

Track 2
Filename C:Documents and SettingscuntfistDesktopFLAC’s15Hawaiian Time – Life Goes On (2008) [FLAC]2 – The Girl Is Hot.wav

Peak level 98.8 %
Track quality 100.0 %
Test CRC B881735F
Copy CRC B881735F
Copy OK

Track 3
Filename C:Documents and SettingscuntfistDesktopFLAC’s15Hawaiian Time – Life Goes On (2008) [FLAC]3 – Island Beauty.wav

Peak level 98.7 %
Track quality 100.0 %
Test CRC FBFBE131
Copy CRC FBFBE131
Copy OK

Track 4
Filename C:Documents and SettingscuntfistDesktopFLAC’s15Hawaiian Time – Life Goes On (2008) [FLAC]4 – You Turn Me On.wav

Peak level 98.7 %
Track quality 100.0 %
Test CRC 96CD775B
Copy CRC 96CD775B
Copy OK

Track 5
Filename C:Documents and SettingscuntfistDesktopFLAC’s15Hawaiian Time – Life Goes On (2008) [FLAC]5 – There For You.wav

Pre-gap length 0:00:01.36

Peak level 98.8 %
Track quality 99.9 %
Test CRC 3E41515B
Copy CRC 3E41515B
Copy OK

Track 6
Filename C:Documents and SettingscuntfistDesktopFLAC’s15Hawaiian Time – Life Goes On (2008) [FLAC]6 – I Can’t Wait.wav

Pre-gap length 0:00:00.02

Peak level 98.8 %
Track quality 99.9 %
Test CRC DD189395
Copy CRC DD189395
Copy OK

Track 7
Filename C:Documents and SettingscuntfistDesktopFLAC’s15Hawaiian Time – Life Goes On (2008) [FLAC]7 – Praying On A Dream.wav

Pre-gap length 0:00:02.53

Peak level 98.8 %
Track quality 100.0 %
Test CRC 44D25B85
Copy CRC 44D25B85
Copy OK

Track 8
Filename C:Documents and SettingscuntfistDesktopFLAC’s15Hawaiian Time – Life Goes On (2008) [FLAC]8 – Your Lips On Mine.wav

Pre-gap length 0:00:00.46

Peak level 98.8 %
Track quality 100.0 %
Test CRC 7BAD5ED7
Copy CRC 7BAD5ED7
Copy OK

Track 9
Filename C:Documents and SettingscuntfistDesktopFLAC’s15Hawaiian Time – Life Goes On (2008) [FLAC]9 – I Want To Show You.wav

Pre-gap length 0:00:00.86

Peak level 98.5 %
Track quality 100.0 %
Test CRC 67CFC6A2
Copy CRC 67CFC6A2
Copy OK

Track 10
Filename C:Documents and SettingscuntfistDesktopFLAC’s15Hawaiian Time – Life Goes On (2008) [FLAC]10 – Life Goes On.wav

Pre-gap length 0:00:02.10

Peak level 98.0 %
Track quality 100.0 %
Test CRC 897F2B05
Copy CRC 897F2B05
Copy OK

Track 11
Filename C:Documents and SettingscuntfistDesktopFLAC’s15Hawaiian Time – Life Goes On (2008) [FLAC]11 – Wrap Your Arms Around Me.wav

Pre-gap length 0:00:03.06

Peak level 98.6 %
Track quality 100.0 %
Test CRC CA3B842F
Copy CRC CA3B842F
Copy OK

Track 12
Filename C:Documents and SettingscuntfistDesktopFLAC’s15Hawaiian Time – Life Goes On (2008) [FLAC]12 – Imua Kamehameha.wav

Peak level 98.8 %
Track quality 100.0 %
Test CRC B8172DD9
Copy CRC B8172DD9
Copy OK

Track 13
Filename C:Documents and SettingscuntfistDesktopFLAC’s15Hawaiian Time – Life Goes On (2008) [FLAC]13 – GI4U.wav

Peak level 98.8 %
Track quality 99.9 %
Test CRC 528C9843
Copy CRC 528C9843
Copy OK

Track 14
Filename C:Documents and SettingscuntfistDesktopFLAC’s15Hawaiian Time – Life Goes On (2008) [FLAC]14 – What Did I Say.wav

Peak level 98.8 %
Track quality 99.9 %
Test CRC BA543933
Copy CRC BA543933
Copy OK

Track 15
Filename C:Documents and SettingscuntfistDesktopFLAC’s15Hawaiian Time – Life Goes On (2008) [FLAC]15 – Victims Of Love.wav

Peak level 98.5 %
Track quality 100.0 %
Test CRC 25448549
Copy CRC 25448549
Copy OK

Track 16
Filename C:Documents and SettingscuntfistDesktopFLAC’s15Hawaiian Time – Life Goes On (2008) [FLAC]16 – Come Out Girl.wav

Peak level 98.8 %
Track quality 99.9 %
Test CRC 3367602A
Copy CRC 3367602A
Copy OK

Track 17
Filename C:Documents and SettingscuntfistDesktopFLAC’s15Hawaiian Time – Life Goes On (2008) [FLAC]17 – Wish You Were My Girl.wav

Pre-gap length 0:00:02.54

Peak level 98.8 %
Track quality 100.0 %
Test CRC 12722132
Copy CRC 12722132
Copy OK

Track 18
Filename C:Documents and SettingscuntfistDesktopFLAC’s15Hawaiian Time – Life Goes On (2008) [FLAC]18 – Hang Over.wav

Pre-gap length 0:00:00.96

Peak level 98.6 %
Track quality 100.0 %
Test CRC 380852BA
Copy CRC 380852BA
Copy OK

No errors occured

End of status report

Hawaiian Time - Life Goes On (2008)

Hawaiian Time – Life Goes On (2008) Download, Warez, DDL, Free, Full Album, Torrent, Legal.

Download