Harold Mabern – A Few Miles From Memphis (1968) {2004, Reissue}

Download
Harold Mabern - A Few Miles From Memphis (1968) {2004, Reissue}

Harold Mabern – A Few Miles From Memphis (1968) {2004, Reissue}
EAC Rip | FLAC (Img) + Cue + Log ~ 464 Mb | MP3 CBR320 ~ 184 Mb
Scans Included (JPG, 300 dpi) | RAR 5% Recovery
Jazz | Prestige Records #PRCD 24288-2

On A Few Miles from Memphis, recorded by pianist Harold Mabern in 1968, he’s joined by tenors George Coleman and Buddy Terry, bassist Bill Lee, and drummer Walter Perkins for a bluesy, rhythm-filled set featuring familiar fare like "A Treat for Bea" and fun originals like "Walkin’ Back." There’s also the odd inclusion of "There’s a Kind of Hush," a pop song that comes out sounding like an old standard here.

~ Ronnie D. Lankford, Jr., All Music
Wiki | Discogs | All Music

Track List:

01. A Few Miles From Memphis [5:35]
02. Walkin’ Back [5:55]
03. A Treat For Bea [6:11]
04. Syden Blue [4:05]
05. There’s A Kind Of Hush [5:40]
06. B&B [7:31]
07. To Wane [6:28]
08. Rakin’ And Scrapin’ [7:42]
09. Such Is Life [8:21]
10. Aon [9:11]
11. I Heard It Through The Grapevine [3:23]
12. Valerie [5:02]

Personnel:
Harold Mabern – piano, electric piano on 11
George Colleman – tenor sax
Buddy Terry – tenor sax
Bill Lee – bass
Walter Perkins – drums
Blue Mitchell – trumpet
Hugh Walker – drums

EAC Log
Exact Audio Copy V0.99 prebeta 5 from 4. May 2009

Отчёт EAC об извлечении, выполненном 30. декабря 2010, 9:53

Harold Mabern / A Few Miles From Memphis

Дисковод: Optiarc DVD RW AD-5200S Adapter: 0 ID: 1

Режим чтения : Достоверность
Использование точного потока : Да
Отключение кэша аудио : Да
Использование указателей C2 : Нет

Коррекция смещения при чтении : 48
Способность читать области Lead-in и Lead-out : Нет
Заполнение пропущенных сэмплов тишиной : Да
Удаление блоков с тишиной в начале и конце : Нет
При вычислениях CRC использовались нулевые сэмплы : Да
Интерфейс : Встроенный Win32-интерфейс для Win NT/2000

Выходной формат : Внутренние WAV-операции
Формат сэмплов : 44.100 Гц; 16 бит; стерео

TOC извлечённого CD

Трек | Старт | Длительность | Начальный сектор | Конечный сектор
––––––––––––––––––––––––––––––––––-
1 | 0:00.00 | 5:35.00 | 0 | 25124
2 | 5:35.00 | 5:55.20 | 25125 | 51769
3 | 11:30.20 | 6:10.65 | 51770 | 79584
4 | 17:41.10 | 4:04.40 | 79585 | 97924
5 | 21:45.50 | 5:40.32 | 97925 | 123456
6 | 27:26.07 | 7:30.70 | 123457 | 157276
7 | 34:57.02 | 6:27.70 | 157277 | 186371
8 | 41:24.72 | 7:42.05 | 186372 | 221026
9 | 49:07.02 | 8:20.38 | 221027 | 258564
10 | 57:27.40 | 9:10.62 | 258565 | 299876
11 | 66:38.27 | 3:22.38 | 299877 | 315064
12 | 70:00.65 | 5:02.30 | 315065 | 337744

Характеристики диапазона извлечения и сообщения об ошибках

Выбранный диапазон

Имя файла D:MusMY RELEASEHarold Mabern – A Few Miles From Memphis.wav

Пиковый уровень 97.0 %
Качество диапазона 100.0 %
CRC копии 852AEF0C
Копирование… OK

Ошибок не произошло

AccurateRip: сводка

Трек 1 нет в базе данных
Трек 2 нет в базе данных
Трек 3 нет в базе данных
Трек 4 нет в базе данных
Трек 5 нет в базе данных
Трек 6 нет в базе данных
Трек 7 нет в базе данных
Трек 8 нет в базе данных
Трек 9 нет в базе данных
Трек 10 нет в базе данных
Трек 11 нет в базе данных
Трек 12 нет в базе данных

Ни одного трека нет в базе AccurateRip

Конец отчёта

DR Log
foobar2000 1.2.6 / Dynamic Range Meter 1.1.1
log date: 2017-07-12 10:28:18

––––––––––––––––––––––––––––––––––––––––
Analyzed: Harold Mabern / A Few Miles From Memphis
––––––––––––––––––––––––––––––––––––––––

DR Peak RMS Duration Track
––––––––––––––––––––––––––––––––––––––––
DR11 -0.61 dB -14.20 dB 5:35 01-A Few Miles From Memphis
DR13 -0.65 dB -17.25 dB 5:55 02-Walkin’ Back
DR11 -0.66 dB -14.00 dB 6:11 03-A Treat For Bea
DR10 -0.39 dB -12.73 dB 4:05 04-Syden Blue
DR12 -0.67 dB -15.19 dB 5:40 05-There’s A Kind Of Hush
DR11 -0.84 dB -16.09 dB 7:31 06-B&B
DR11 -0.52 dB -15.12 dB 6:28 07-To Wane
DR12 -0.26 dB -15.27 dB 7:42 08-Rakin’ And Scrapin’
DR12 -0.65 dB -16.61 dB 8:21 09-Such Is Life
DR11 -0.33 dB -14.02 dB 9:11 10-Aon
DR12 -0.48 dB -14.09 dB 3:23 11-I Heard It Through The Grapevine
DR12 -0.91 dB -15.55 dB 5:02 12-Valerie
––––––––––––––––––––––––––––––––––––––––

Number of tracks: 12
Official DR value: DR11

Samplerate: 44100 Hz
Channels: 2
Bits per sample: 16
Bitrate: 816 kbps
Codec: FLAC
================================================================================

CUETools Log
[CUETools log; Date: 12.07.2017 10:25:18; Version: 2.1.5]
[CTDB TOCID: vcyGGKuktBApcUiPcRCCfC7IZHA-] found.
Track | CTDB Status
1 | (4/4) Accurately ripped
2 | (4/4) Accurately ripped
3 | (4/4) Accurately ripped
4 | (4/4) Accurately ripped
5 | (4/4) Accurately ripped
6 | (4/4) Differs in 227 samples @03:12:22,03:12:38-03:12:39,03:15:56-03:15:57,03:18:74,03:19:48,03:25:51,03:26:73,03:27:47
7 | (4/4) Accurately ripped
8 | (4/4) Accurately ripped
9 | (4/4) Accurately ripped
10 | (4/4) Accurately ripped
11 | (4/4) Accurately ripped
12 | (4/4) Accurately ripped
[AccurateRip ID: 0020dd3e-01372514-a811970c] found.
Track [ CRC | V2 ] Status
01 [f3340449|15a213e9] (1+0/4) Accurately ripped
02 [fa3c6a89|ff2ce90b] (1+0/4) Accurately ripped
03 [dc6b256e|29eaba0d] (1+0/4) Accurately ripped
04 [ddd96e57|96adf933] (1+0/4) Accurately ripped
05 [cc574dd8|96cf1893] (1+0/4) Accurately ripped
06 [784866e1|8a30e961] (1+0/4) Accurately ripped
07 [3cf0a91f|66f546f4] (1+0/4) Accurately ripped
08 [474ff735|320fd3da] (1+0/4) Accurately ripped
09 [3d0b27b6|f49a1ead] (1+0/4) Accurately ripped
10 [e250688d|44badb6d] (1+0/4) Accurately ripped
11 [321d1b88|f96d4458] (1+0/4) Accurately ripped
12 [9af0fb54|59f44cdd] (1+0/4) Accurately ripped

Track Peak [ CRC32 ] [W/O NULL] [ LOG ]
– 97,0 [852AEF0C] [89ACC1D2] CRC32
01 93,2 [47DB82BB] [B6B3BA9C]
02 92,8 [A7DBB02E] [33B5D4FD]
03 92,6 [A89C6CA7] [56B6AF05]
04 95,6 [7FB5FB14] [048F41FB]
05 92,5 [17BB2DC2] [FC17F16C]
06 90,8 [A5744310] [CA38108D]
07 94,2 [6831EE67] [6AE3366C]
08 97,0 [E420F7DC] [97B90CDA]
09 92,8 [E5251E19] [4F0C70E6]
10 96,2 [947C7C63] [9B110DEE]
11 94,5 [5594E2E0] [00405956]
12 90,0 [26E2DCB8] [308308C8]

Harold Mabern - A Few Miles From Memphis (1968) {2004, Reissue}

Harold Mabern - A Few Miles From Memphis (1968) {2004, Reissue}

See also:
Harold Mabern – Mr. Lucky: A Tribute to Sammy Davis Jr. (2012)
Harold Mabern – Afro Blue (2015)
Art Farmer-Benny Golson Jazztet – Here And Now (1962) {1998, Limited Edition, Remastered}

All thanks go to Cost123

>>> My Blog <<<

Download from icerbox.com:

Harold Mabern – A Few Miles From Memphis (1968) {2004, Reissue} Download, Warez, DDL, Free, Full Album, Torrent, Legal.

Download