Hank Marvin – Heartbeat (1993) Reissue 2010

Download
Hank Marvin - Heartbeat (1993) Reissue 2010

Hank Marvin – Heartbeat (1993) Reissue 2010
EAC | FLAC | Image (Cue&Log) ~ 408 Mb | Mp3 (CBR320) ~ 158 Mb | Scans included
Instrumental Guitar Pop/Rock | Label: EMI Gold | # 50999 6 4645 2 1 | 01:03:52

Digitally remastered reissue of this 1993 album from the British guitarist and Shadows member. Heartbeat features guest appearances from Cliff Richard, who sings on four tracks, and Dire Straits main man Mark Knopfler. This album features Hank playing some classic tunes including ‘Heartbeat’, ‘Mrs. Robinson’, ‘Wonderful Land’, ‘Oxygene’, ‘Take Five’ and ‘Live And Let Die’ amongst others.

A major influence on British guitar heroes of the ’70s such as Jeff Beck and Jimmy Page, Hank Marvin played lead guitar for the Shadows, one of the U.K.’s top instrumental outfits and backing band for Cliff Richard on most of his hits. Born Brian Robson Rankin on October 28, 1941, Marvin grew up in Newcastle learning guitar, banjo, and piano. He played in various skiffle groups around the area, and met up with rhythm guitarist Bruce Welch. After moving to London in 1958, the two were recruited to serve in Cliff Richard’s backing band, the Drifters, with Ian Samwell and Terry Smart. Richard’s first single, "Move It," hit number two on the British charts, and two other singles – "Living Doll" and "Travellin’ Light" – hit number one the following year. Samwell and Smart left the band – now called the Shadows, to avoid confusion with the American vocal group – and were replaced by bassist Jet Harris and drummer Tony Meehan.

The Shadows recorded several sides as an instrumental act in late 1959; one called "Apache" hit number one in the British charts. From 1960-1963, the band racked up four number ones and seven Top Ten hits before disbanding in 1968. Marvin, while continuing to appear and record with Cliff Richard, began a solo career with a self-titled album in 1969; it reached number 14 in the album charts. In the early ’70s, he reunited with Welch and John Farrar as Marvin, Welch and Farrar. The trio recorded both an eponymous LP and Second Opinion, and then Marvin and Farrar recorded an additional album as a duo. Marvin moved to Australia and became a Jehovah’s Witness in 1973, but later joined a re-formed Shadows. The group resumed recording, and hit the Top Ten in 1978-1979 with "Don’t Cry for Me Argentina" and "Theme from ‘The Deerhunter’."

Hank Marvin’s only chart success as a solo act was 1982’s Words and Music, which featured the U.K. hit "Don’t Talk." He recorded All Alone with Friends in 1983, and then re-appeared in the ’90s with four albums – Into the Light, Heartbeat, Hank Plays Cliff, and Hank Plays Holly. Continuing to perform on the live circuit and release throughout the 2000s – including the U.K. Top Ten albums Guitar Player and Guitar Man – Marvin also delivered guest spots for the likes of Jason Donovan and Richard Hawley. 2014 saw Marvin branching into jazz territory with the release of Django’s Castle, on which he was joined by rhythm guitarist Gary Taylor and accordionist Nunzio Mondia. Returning in 2017 with Without a Word, the album featured covers of songs by some of Marvin’s favorite artists, including the Beatles and Elvis.

John Bush, Allmusic.com

Hank Marvin - Heartbeat (1993) Reissue 2010

Hank Marvin at Allmusic
Hank Marvin at Wiki

Tracklist:

01. Heartbeat (featuring Cliff Richard) (2:47)
02. Oxygene, Pt. 4 (4:32)
03. Mrs Robinson (featuring Cliff Richard) (4:06)
04. Space Oddity (featuring Cliff Richard) (5:08)
05. Achy Breaky Heart (3:27)
06. I Will Always Love You (featuring Cliff Richard) (3:32)
07. The Crying Game (3:39)
08. Cable Beach (4:24)
09. Wonderful Land (Hank Marvin & Mark Knopfler) (2:25)
10. Hot Rox (4:00)
11. Rocket Man (5:33)
12. Take Five (4:37)
13. Wichita Lineman (4:13)
14. Live and Let Die (3:17)
15. Crying (3:50)
16. Limited Slip (4:23)

EAC log
Exact Audio Copy V1.0 beta 3 from 29. August 2011

EAC extraction logfile from 13. June 2014, 9:31

Hank Marvin / Heartbeat [dBP-T-FLAC]

Used drive : ASUS SDRW-08D1S-U Adapter: 1 ID: 0

Read mode : Secure
Utilize accurate stream : Yes
Defeat audio cache : Yes
Make use of C2 pointers : No

Read offset correction : 667
Overread into Lead-In and Lead-Out : No
Fill up missing offset samples with silence : Yes
Delete leading and trailing silent blocks : No
Null samples used in CRC calculations : Yes
Used interface : Native Win32 interface for Win NT & 2000

Used output format : User Defined Encoder
Selected bitrate : 128 kBit/s
Quality : High
Add ID3 tag : No
Command line compressor : C:Program Files (x86)Exact Audio CopyFlacflac.exe
Additional command line options : -V -8 -T "Date=%year%" -T "Genre=%genre%" %source%

TOC of the extracted CD

Track | Start | Length | Start sector | End sector
––––––––––––––––––––––––––––-
1 | 0:00.00 | 2:47.02 | 0 | 12526
2 | 2:47.02 | 4:31.68 | 12527 | 32919
3 | 7:18.70 | 4:05.50 | 32920 | 51344
4 | 11:24.45 | 5:07.47 | 51345 | 74416
5 | 16:32.17 | 3:26.65 | 74417 | 89931
6 | 19:59.07 | 3:32.08 | 89932 | 105839
7 | 23:31.15 | 3:39.37 | 105840 | 122301
8 | 27:10.52 | 4:24.18 | 122302 | 142119
9 | 31:34.70 | 2:24.67 | 142120 | 152986
10 | 33:59.62 | 3:59.60 | 152987 | 170971
11 | 37:59.47 | 5:32.65 | 170972 | 195936
12 | 43:32.37 | 4:36.68 | 195937 | 216704
13 | 48:09.30 | 4:12.62 | 216705 | 235666
14 | 52:22.17 | 3:17.10 | 235667 | 250451
15 | 55:39.27 | 3:49.55 | 250452 | 267681
16 | 59:29.07 | 4:22.38 | 267682 | 287369

Range status and errors

Selected range

Filename C:UsersОлегDownloadsHank Marvin – Heartbeat [dBP-T-FLAC].wav

Peak level 99.4 %
Extraction speed 4.2 X
Range quality 100.0 %
Test CRC ECE8100F
Copy CRC ECE8100F
Copy OK

No errors occurred

AccurateRip summary

Track 1 cannot be verified as accurate (confidence 4) [D8877852], AccurateRip returned [3FA5F9A6] (AR v2)
Track 2 cannot be verified as accurate (confidence 4) [95F60AE9], AccurateRip returned [C3B2443B] (AR v2)
Track 3 cannot be verified as accurate (confidence 4) [E3B67CBB], AccurateRip returned [D845BA18] (AR v2)
Track 4 cannot be verified as accurate (confidence 4) [BA1A46E1], AccurateRip returned [1AB7FEE2] (AR v2)
Track 5 cannot be verified as accurate (confidence 4) [BEDEDE3E], AccurateRip returned [87C7A25D] (AR v2)
Track 6 cannot be verified as accurate (confidence 4) [8C781A45], AccurateRip returned [33348C02] (AR v2)
Track 7 cannot be verified as accurate (confidence 4) [93B3FCF3], AccurateRip returned [6FF2D922] (AR v2)
Track 8 cannot be verified as accurate (confidence 4) [5A92941F], AccurateRip returned [426790FE] (AR v2)
Track 9 cannot be verified as accurate (confidence 4) [DD9749A8], AccurateRip returned [DC75A60B] (AR v2)
Track 10 cannot be verified as accurate (confidence 4) [6CCA0C04], AccurateRip returned [43371730] (AR v2)
Track 11 cannot be verified as accurate (confidence 4) [BB7F13D7], AccurateRip returned [03DD2EB1] (AR v2)
Track 12 cannot be verified as accurate (confidence 4) [FB746F45], AccurateRip returned [4BC9E47F] (AR v2)
Track 13 cannot be verified as accurate (confidence 4) [BE41A59D], AccurateRip returned [20F20B64] (AR v2)
Track 14 cannot be verified as accurate (confidence 4) [A7EA131F], AccurateRip returned [6E50D15E] (AR v2)
Track 15 cannot be verified as accurate (confidence 4) [9B1BADAC], AccurateRip returned [CA04DBFF] (AR v2)
Track 16 cannot be verified as accurate (confidence 3) [F217BD10], AccurateRip returned [3D5B5CA2] (AR v2)

No tracks could be verified as accurate
You may have a different pressing from the one(s) in the database

End of status report

==== Log checksum 1B0EFE9C42B8810F05FA72DC68719A359E36E067478CB506824F91AD77587A72 ====

DR log
foobar2000 1.2 / Dynamic Range Meter 1.1.1
log date: 2017-07-11 21:24:29

––––––––––––––––––––––––––––––––––––––––
Analyzed: Hank Marvin / Heartbeat [dBP-T-FLAC]
––––––––––––––––––––––––––––––––––––––––

DR Peak RMS Duration Track
––––––––––––––––––––––––––––––––––––––––
DR14 -0.05 dB -15.83 dB 2:47 01-Heartbeat (featuring Cliff Richard)
DR14 -0.05 dB -14.83 dB 4:32 02-Oxygene, Pt. 4
DR13 -0.05 dB -14.21 dB 4:06 03-Mrs Robinson (featuring Cliff Richard)
DR13 -0.82 dB -16.96 dB 5:08 04-Space Oddity (featuring Cliff Richard)
DR13 -0.05 dB -15.08 dB 3:27 05-Achy Breaky Heart
DR13 -0.74 dB -17.14 dB 3:32 06-I Will Always Love You (featuring Cliff Richard)
DR14 -1.45 dB -17.60 dB 3:39 07-The Crying Game
DR14 -0.05 dB -15.83 dB 4:24 08-Cable Beach
DR12 -2.23 dB -15.70 dB 2:25 09-Wonderful Land (Hank Marvin & Mark Knopfler)
DR14 -0.05 dB -15.24 dB 4:00 10-Hot Rox
DR14 -0.18 dB -18.02 dB 5:33 11-Rocket Man
DR13 -1.54 dB -16.66 dB 4:37 12-Take Five
DR14 -0.05 dB -15.29 dB 4:13 13-Wichita Lineman
DR13 -0.59 dB -17.23 dB 3:17 14-Live and Let Die
DR13 -0.05 dB -18.56 dB 3:50 15-Crying
DR13 -0.08 dB -14.92 dB 4:23 16-Limited Slip
––––––––––––––––––––––––––––––––––––––––

Number of tracks: 16
Official DR value: DR13

Samplerate: 44100 Hz
Channels: 2
Bits per sample: 16
Bitrate: 868 kbps
Codec: FLAC
================================================================================

Hank Marvin - Heartbeat (1993) Reissue 2010

Hank Marvin - Heartbeat (1993) Reissue 2010

All thanks to original releaser – Alex Fal

More interesting music in My Blog

The Shadows – Good Vibrations (1998) 3 CD Box Set

The Shadows – Memories 36 Guitar Moods (2005) 2 CDs

Marvin, Welch & Farrar – Step From The Shadows (1986)

Hank Marvin – Guitar Player (2002)

Hank Marvin – Heartbeat (1993) Reissue 2010 Download, Warez, DDL, Free, Full Album, Torrent, Legal.

Download