Hank Crawford & Jimmy McGriff – Crunch Time (1998) {Milestone MCD-9287-2} | ViralVideoPk

Daily Dose of Free Downloads

Hank Crawford & Jimmy McGriff – Crunch Time (1998) {Milestone MCD-9287-2}

Download

Hank Crawford & Jimmy McGriff - Crunch Time (1998) {Milestone MCD-9287-2}

Hank Crawford & Jimmy McGriff – Crunch Time (1998) {Milestone MCD-9287-2}
EAC rip (secure mode) | FLAC (tracks)+CUE+LOG -> 329 Mb | MP3 @320 -> 124 Mb
Full Artwork @ 300 dpi (jpg) -> 11 Mb | 5% repair rar
© 1998 Milestone / Fantasy | MCD-9287-2
Jazz / Hard Bop / Soul Jazz / Modern Post Bebop / Saxophone / Organ

Over at Rudy Van Gelder’s studio in Jersey during the ’90s, it was just like 1969 with soul-jazz sessions bursting forth at a more leisurely yet no less insistent clip. This could only mean that Hank Crawford and co-billed leader Jimmy McGriff were at it again, playing off the Bernard Purdie shuffle on the first two tracks, and cruising through ballads, blues, and cover tunes with the assurance of those who had the genre in their bloodstream. A high point is Marvin Gaye’s "What’s Going On," as Crawford has the soul and restraint to make a fresh case for a slightly over-recorded contemporary tune.

The instantly identifiable Cornell Dupree and mellower Melvin Sparks divide up the guitar parts, taking four tracks apiece, equally unflappable in solos and on rhythm. Not much is new here – which may be precisely the point of the exercise – and while these sessions do not quite rise to the truckin’ heights of some other McGriff Milestone discs from this period, there is still plenty to groove to in these tracks. Bob Porter produced it – as you knew he did.

Musicians:
Alto Saxophone Hank Crawford
Organ Jimmy McGriff
Guitar Melvin Sparks
Guitar Cornell Dupree
Drums Bernard Purdie

tracklist:
01 Bow Legs 06:33
02 It’s All Good 08:14
03 Don’t Deceive Me (Please Don’t Go) 05:46
04 Sandu 07:13
05 Crunch Time 07:16
06 What’s Goin’ On 07:16
07 Without A Song 04:15
08 The Preacher 06:31

EAC log
Exact Audio Copy V1.0 beta 1 from 15. November 2010

EAC extraction logfile from 20. May 2013, 7:09

Hank Crawford & Jimmy McGriff / Crunch Time

Used drive : SONY DVD RW DRU-810A Adapter: 1 ID: 2

Read mode : Secure
Utilize accurate stream : Yes
Defeat audio cache : Yes
Make use of C2 pointers : No

Read offset correction : 618
Overread into Lead-In and Lead-Out : No
Fill up missing offset samples with silence : Yes
Delete leading and trailing silent blocks : No
Null samples used in CRC calculations : Yes
Used interface : Installed external ASPI interface
Gap handling : Appended to previous track

Used output format : User Defined Encoder
Selected bitrate : 768 kBit/s
Quality : High
Add ID3 tag : No
Command line compressor : C:Program FilesExact Audio Copy-NEWFlacflac.exe
Additional command line options : -8 -V -T "ARTIST=%a" -T "TITLE=%t" -T "ALBUM=%g" -T "DATE=%y" -T "TRACKNUMBER=%n" -T "TOTALTRACKS=%x" -T "GENRE=%m" -T "ALBUMARTIST=%v" -T "ALBUM ARTIST=%v" -T "COMMENT=EAC V1.01b1, Secure Mode, Test & Copy, AccurateRip, FL

TOC of the extracted CD

Track | Start | Length | Start sector | End sector
––––––––––––––––––––––––––––-
1 | 0:00.00 | 6:34.38 | 0 | 29587
2 | 6:34.38 | 8:14.00 | 29588 | 66637
3 | 14:48.38 | 5:46.06 | 66638 | 92593
4 | 20:34.44 | 7:13.52 | 92594 | 125120
5 | 27:48.21 | 7:16.47 | 125121 | 157867
6 | 35:04.68 | 7:16.72 | 157868 | 190639
7 | 42:21.65 | 4:15.42 | 190640 | 209806
8 | 46:37.32 | 6:31.27 | 209807 | 239158

Track 1

Filename J:New RipsHank Crawford & Jimmy McGriff – Crunch Time (1998) [FLAC]1 – Bow Legs.wav

Pre-gap length 0:00:02.00

Peak level 97.9 %
Extraction speed 4.8 X
Track quality 99.9 %
Test CRC 9FC097CA
Copy CRC 9FC097CA
Accurately ripped (confidence 1) [87BD5BD1]
Copy OK

Track 2

Filename J:New RipsHank Crawford & Jimmy McGriff – Crunch Time (1998) [FLAC]2 – It’s All Good.wav

Pre-gap length 0:00:03.37

Peak level 97.9 %
Extraction speed 6.3 X
Track quality 100.0 %
Test CRC 954DD7E1
Copy CRC 954DD7E1
Accurately ripped (confidence 1) [D62AE31D]
Copy OK

Track 3

Filename J:New RipsHank Crawford & Jimmy McGriff – Crunch Time (1998) [FLAC]3 – Don’t Deceive Me.wav

Pre-gap length 0:00:03.53

Peak level 97.9 %
Extraction speed 6.7 X
Track quality 100.0 %
Test CRC 28EBBFC4
Copy CRC 28EBBFC4
Accurately ripped (confidence 1) [A87704DB]
Copy OK

Track 4

Filename J:New RipsHank Crawford & Jimmy McGriff – Crunch Time (1998) [FLAC]4 – Sandu.wav

Pre-gap length 0:00:03.05

Peak level 97.9 %
Extraction speed 7.4 X
Track quality 100.0 %
Test CRC 8E023079
Copy CRC 8E023079
Accurately ripped (confidence 1) [75CD70F2]
Copy OK

Track 5

Filename J:New RipsHank Crawford & Jimmy McGriff – Crunch Time (1998) [FLAC]5 – Crunch Time.wav

Pre-gap length 0:00:04.24

Peak level 97.9 %
Extraction speed 8.1 X
Track quality 100.0 %
Test CRC 6A318F3C
Copy CRC 6A318F3C
Accurately ripped (confidence 1) [131B05D2]
Copy OK

Track 6

Filename J:New RipsHank Crawford & Jimmy McGriff – Crunch Time (1998) [FLAC]6 – What’s Goin’ On.wav

Pre-gap length 0:00:03.53

Peak level 97.9 %
Extraction speed 8.5 X
Track quality 100.0 %
Test CRC E7B1D3C2
Copy CRC E7B1D3C2
Accurately ripped (confidence 1) [41D02B03]
Copy OK

Track 7

Filename J:New RipsHank Crawford & Jimmy McGriff – Crunch Time (1998) [FLAC]7 – Without A Song.wav

Pre-gap length 0:00:03.40

Peak level 97.9 %
Extraction speed 8.5 X

Track quality 100.0 %
Test CRC 0585920D
Copy CRC 0585920D
Accurately ripped (confidence 1) [7ACF5D70]
Copy OK

Track 8

Filename J:New RipsHank Crawford & Jimmy McGriff – Crunch Time (1998) [FLAC]8 – The Preacher.wav

Pre-gap length 0:00:04.01

Peak level 97.9 %
Extraction speed 9.2 X
Track quality 100.0 %
Test CRC 208AC919
Copy CRC 208AC919
Accurately ripped (confidence 1) [3C99654F]
Copy OK

All tracks accurately ripped

No errors occurred

End of status report

==== Log checksum 5105CF6447A5040E573FF06C87762F28F4FA46182FB2611E333323A34277D1D4 ====

Hank Crawford & Jimmy McGriff - Crunch Time (1998) {Milestone MCD-9287-2}

Hank Crawford & Jimmy McGriff - Crunch Time (1998) {Milestone MCD-9287-2}

All thanks goes to the original releaser!

Hank Crawford & Jimmy McGriff – Crunch Time (1998) {Milestone MCD-9287-2} Download, Warez, DDL, Free, Full Album, Torrent, Legal.

Download


  • Recent Posts

  • Recent Tags