Handel – Concertos for the Harpsichord 1 (Wolfgang Gluxam) [2003]

Download
Handel - Concertos for the Harpsichord 1 (Wolfgang Gluxam) [2003]

Handel – Concertos for the Harpsichord 1 (Wolfgang Gluxam) [2003]
EAC Rip | FLAC, IMG+CUE, LOG | Covers | 1cd, 315 MB
Classical | Label: ORF | Catalog Number: CD331 | TT: 59’29

Georg Friedrich Händel: "Concertos for the Harpsichord" (Vol. 1) All of them are known, Georg Friedrich Händel’s "Orgelkonzerte”. Unknown by the most is, that beside his "Orgelkonzerte” he also composed pieces for cembalo only. The vianese cembalo player Wolfgang Glüxam and the ensemble "Gradus ad Parnassum Wien” under Hiro Kurosaki perform these cembalo concerts for the first time. In addition this CD also contains two popular works from Händel.
Lord Kinnoul said after hearing one of Händel’s: "Mister Händel, I would have been sad if I would have entertained the crowd, I wanted to improve you”.

Performer:
Wolfgang Gluxam, harpsichord
Gradus ad Parnassum Wien (on period instruments)
Director: Hiro Kurosaki

Tracklisting:
1. Concerto grosso G-Dur op.3 Nr. 3 (HWV 314), I. Largo estaccato. Allegro (2:56)
2. II. Adagio (1:03)
3. III. Allegro (3:16)
4. Concerto grosso d-Moll op.7 Nr. 4 (HWV 309), I. Adagio (4:56)
5. II. Allegro cosi cosi (4:16)
6. III. Adagio. [Cembalo] ad libitum (1:22)
7. IV. Allegro (3:26)
8. Concerto g-Moll op. 7 Nr. 5 (HWV 310), I. Allegro ma non troppo, e staccato (2:49)
9. II. Adagio. [Cembalo] ad libitum (0:44)
10. III. Andante larghetoo, e staccato. Ad libitum (4:59)
11. IV. Menuet (1:50)
12. V. Gavotte (1:49)
13. Concerto g-Moll op. 4 Nr. 1 (HWV 289), I. Larghetto, e staccato (4:36)
14. II. Allegro (4:36)
15. III. Adagio. [Cembalo] ad libitum (1:22)
16. IV. Andante (3:42)
17. Concerto grosso F-Dur op. 6 Nr. 2 (HWV 320), I. Andante larghetto (4:26)
18. II. Allegro (2:36)
19. III. Largo (2:17)
20. IV. Allegro ma non troppo (2:28)

LOG
Exact Audio Copy V1.0 beta 3 from 29. August 2011

EAC extraction logfile from 7. March 2014, 1:13

Wolfgang Gluxam, Gradus ad Parnassum Wien, Hiro Kurosaki / Handel- Concertos for the Harpsichord 1

Used drive : ATAPI iHAS122 C Adapter: 0 ID: 0

Read mode : Secure
Utilize accurate stream : Yes
Defeat audio cache : Yes
Make use of C2 pointers : No

Read offset correction : 6
Overread into Lead-In and Lead-Out : No
Fill up missing offset samples with silence : Yes
Delete leading and trailing silent blocks : No
Null samples used in CRC calculations : Yes
Used interface : Native Win32 interface for Win NT & 2000

Used output format : User Defined Encoder
Selected bitrate : 192 kBit/s
Quality : High
Add ID3 tag : No
Command line compressor : C:Program FilesExact Audio CopyFlacflac.exe
Additional command line options : -V -8 -T "Date=%year%" -T "Genre=%genre%" %source%

TOC of the extracted CD

Track | Start | Length | Start sector | End sector
––––––––––––––––––––––––––––-
1 | 0:00.00 | 2:56.44 | 0 | 13243
2 | 2:56.44 | 1:03.30 | 13244 | 17998
3 | 3:59.74 | 3:16.71 | 17999 | 32769
4 | 7:16.70 | 4:57.00 | 32770 | 55044
5 | 12:13.70 | 4:16.33 | 55045 | 74277
6 | 16:30.28 | 1:22.03 | 74278 | 80430
7 | 17:52.31 | 3:26.27 | 80431 | 95907
8 | 21:18.58 | 2:49.54 | 95908 | 108636
9 | 24:08.37 | 0:44.25 | 108637 | 111961
10 | 24:52.62 | 4:59.55 | 111962 | 134441
11 | 29:52.42 | 1:50.13 | 134442 | 142704
12 | 31:42.55 | 1:49.53 | 142705 | 150932
13 | 33:32.33 | 4:36.51 | 150933 | 171683
14 | 38:09.09 | 4:36.48 | 171684 | 192431
15 | 42:45.57 | 1:22.18 | 192432 | 198599
16 | 44:08.00 | 3:42.19 | 198600 | 215268
17 | 47:50.19 | 4:26.15 | 215269 | 235233
18 | 52:16.34 | 2:36.22 | 235234 | 246955
19 | 54:52.56 | 2:17.47 | 246956 | 257277
20 | 57:10.28 | 2:28.20 | 257278 | 268397

Range status and errors

Selected range

Filename C:Program FilesExact Audio CopyFlacGluxam – Handel- Concertos for the Harpsichord 1.wav

Peak level 98.8 %
Extraction speed 5.9 X
Range quality 99.9 %
Test CRC A1FC06BE
Copy CRC A1FC06BE
Copy OK

No errors occurred

AccurateRip summary

Track 1 accurately ripped (confidence 1) [286CF5B5] (AR v2)
Track 2 accurately ripped (confidence 1) [92689ABF] (AR v2)
Track 3 accurately ripped (confidence 1) [7C8EE860] (AR v2)
Track 4 accurately ripped (confidence 1) [980AF7E1] (AR v2)
Track 5 accurately ripped (confidence 1) [10892F1D] (AR v2)
Track 6 accurately ripped (confidence 1) [05635C0E] (AR v2)
Track 7 accurately ripped (confidence 1) [6F777C70] (AR v2)
Track 8 accurately ripped (confidence 1) [1FDD6826] (AR v2)
Track 9 accurately ripped (confidence 1) [36669FD9] (AR v2)
Track 10 accurately ripped (confidence 1) [41C32048] (AR v2)
Track 11 accurately ripped (confidence 1) [3E9664DC] (AR v2)
Track 12 accurately ripped (confidence 1) [70D00A8F] (AR v2)
Track 13 accurately ripped (confidence 1) [C46FCADA] (AR v2)
Track 14 accurately ripped (confidence 1) [89A222BE] (AR v2)
Track 15 accurately ripped (confidence 1) [D9344F16] (AR v2)
Track 16 accurately ripped (confidence 1) [FDF8DE84] (AR v2)
Track 17 accurately ripped (confidence 1) [1EBB92C2] (AR v2)
Track 18 accurately ripped (confidence 1) [8CD8C2AE] (AR v2)
Track 19 accurately ripped (confidence 1) [33B23D31] (AR v2)
Track 20 accurately ripped (confidence 1) [CFAFE5E0] (AR v2)

All tracks accurately ripped

End of status report

==== Log checksum 19AE5D4DB1BF9C7964D0C85D6A67F71DA92DC1D9BEC353ED051E8709BBF08FDE ====

Handel – Concertos for the Harpsichord 1 (Wolfgang Gluxam) [2003] Download, Warez, DDL, Free, Full Album, Torrent, Legal.

Download