Halo – Halo (1990) / Heaven Calling (1991)

Download
Halo - Halo (1990) / Heaven Calling (1991)

Halo – Halo (1990) / Heaven Calling (1991)
EAC Rip | FLAC: Tracks+Cue+Log | MP3 CBR 320 kbps | Scans
Pakaderm Records | 701250126X / 7012511265
Melodic Rock, AOR, CCM

Halo was a Christian rock band formed in Alabama in 1980. Touring in the South for almost a decade before a chance meeting with an encouraging Bob Hartman of Petra fame, Halo was signed by Pakaderm Records and recorded their first album in 1989. Another album followed in 1991 before the group disbanded in 1993.

Great debut album. Skyrocket was a major hit in 1990.

Wikipedia
Halo | Heaven Calling
Halo - Halo (1990) / Heaven Calling (1991)
Halo – Halo (1990)
EAC Rip | FLAC: Tracks+Cue+Log | 304 Mb | MP3 CBR 320 kbps | 119 Mb | Scans | Time: 40:55
Pakaderm Records | 701250126X

Track Listing

01. Jesus Music (04:21)
02. Lord Of All (04:40)
03. Good Feeling (04:15)
04. Language Barrier (04:36)
05. Skyrocket (03:45)
06. Lose To Live (04:35)
07. Sing (Of His Glory) (04:23)
08. Soul Searcher (05:10)
09. Time To Run (04:04)
10. Timeless (01:08)

Produced by Dino & John Elefante

The Band

• Scott Springer – bass, lead vocals
• Barry Graul – guitar, vocals
• Mike Graham – drums, keyboards, vocals

*****
• John Elefante – keyboards, backing vocals
• Dino Elefante – guitar
• Keith Mims – guitar, backing vocals
• Glen Pearce – guitar
• Tony Palacios – guitar
• John Andrew Schreiner – piano

EAC Log
Exact Audio Copy V1.0 beta 3 from 29. August 2011

EAC extraction logfile from 5. January 2012, 18:31

Halo / Halo

Used drive : Optiarc DVD RW AD-7203S Adapter: 0 ID: 0

Read mode : Secure
Utilize accurate stream : Yes
Defeat audio cache : Yes
Make use of C2 pointers : No

Read offset correction : 48
Overread into Lead-In and Lead-Out : No
Fill up missing offset samples with silence : Yes
Delete leading and trailing silent blocks : No
Null samples used in CRC calculations : Yes
Used interface : Native Win32 interface for Win NT & 2000
Gap handling : Appended to previous track

Used output format : User Defined Encoder
Selected bitrate : 768 kBit/s
Quality : High
Add ID3 tag : No
Command line compressor : C:Program FilesExact Audio CopyFLACFLAC.EXE
Additional command line options : -V -8 -T "Genre=%genre%" -T "Artist=%artist%" -T "Title=%title%" -T "Album=%albumtitle%" -T "Date=%year%" -T "Tracknumber=%tracknr%" -T "Comment=%comment%" %source%

TOC of the extracted CD

Track | Start | Length | Start sector | End sector
––––––––––––––––––––––––––––-
1 | 0:00.00 | 4:20.60 | 0 | 19559
2 | 4:20.60 | 4:39.37 | 19560 | 40521
3 | 9:00.22 | 4:14.63 | 40522 | 59634
4 | 13:15.10 | 4:35.50 | 59635 | 80309
5 | 17:50.60 | 3:44.55 | 80310 | 97164
6 | 21:35.40 | 4:34.47 | 97165 | 117761
7 | 26:10.12 | 4:22.60 | 117762 | 137471
8 | 30:32.72 | 5:10.25 | 137472 | 160746
9 | 35:43.22 | 4:03.38 | 160747 | 179009
10 | 39:46.60 | 1:07.50 | 179010 | 184084

Track 1

Filename E:RIPS1 – Jesus Music.wav

Pre-gap length 0:00:02.00

Peak level 84.0 %
Extraction speed 2.6 X
Track quality 100.0 %
Test CRC 494AB608
Copy CRC 494AB608
Cannot be verified as accurate (confidence 2) [694A3F68], AccurateRip returned [03C43B2B] (AR v2)
Copy OK

Track 2

Filename E:RIPS2 – Lord Of All.wav

Peak level 85.3 %
Extraction speed 2.6 X
Track quality 99.9 %
Test CRC DE141B6E
Copy CRC DE141B6E
Cannot be verified as accurate (confidence 2) [546B4289], AccurateRip returned [050690B2] (AR v2)
Copy OK

Track 3

Filename E:RIPS3 – Good Feeling.wav

Pre-gap length 0:00:00.22

Peak level 84.0 %
Extraction speed 3.1 X
Track quality 100.0 %
Test CRC 382F1A06
Copy CRC 382F1A06
Cannot be verified as accurate (confidence 2) [2D244815], AccurateRip returned [2BB649DC] (AR v2)
Copy OK

Track 4

Filename E:RIPS4 – Language Barrier.wav

Pre-gap length 0:00:01.06

Peak level 89.8 %
Extraction speed 3.3 X
Track quality 100.0 %
Test CRC F980A6F0
Copy CRC F980A6F0
Cannot be verified as accurate (confidence 2) [FD2C4EAD], AccurateRip returned [13FF30DC] (AR v2)
Copy OK

Track 5

Filename E:RIPS5 – Skyrocket.wav

Pre-gap length 0:00:02.60

Peak level 97.9 %
Extraction speed 3.0 X
Track quality 99.9 %
Test CRC 9FD1F7EF
Copy CRC 9FD1F7EF
Cannot be verified as accurate (confidence 2) [7DCF6726], AccurateRip returned [523423AB] (AR v2)
Copy OK

Track 6

Filename E:RIPS6 – Lose To Live.wav

Peak level 91.8 %
Extraction speed 3.7 X
Track quality 100.0 %
Test CRC 0FC0DC84
Copy CRC 0FC0DC84
Cannot be verified as accurate (confidence 2) [86CB604B], AccurateRip returned [EE52E7D3] (AR v2)
Copy OK

Track 7

Filename E:RIPS7 – Sing (Of His Glory).wav

Pre-gap length 0:00:01.40

Peak level 88.6 %
Extraction speed 3.8 X
Track quality 100.0 %
Test CRC 06BED68B
Copy CRC 06BED68B
Cannot be verified as accurate (confidence 2) [41477393], AccurateRip returned [AA0BB661] (AR v2)
Copy OK

Track 8

Filename E:RIPS8 – Soul Searcher.wav

Pre-gap length 0:00:01.22

Peak level 77.1 %
Extraction speed 4.1 X
Track quality 100.0 %
Test CRC 4D307C8C
Copy CRC 4D307C8C
Cannot be verified as accurate (confidence 2) [843009C6], AccurateRip returned [06350A1D] (AR v2)
Copy OK

Track 9

Filename E:RIPS9 – Time To Run.wav

Peak level 88.9 %
Extraction speed 4.2 X
Track quality 100.0 %
Test CRC B0E9DCB5
Copy CRC B0E9DCB5
Cannot be verified as accurate (confidence 2) [074F656D], AccurateRip returned [8EC63426] (AR v2)
Copy OK

Track 10

Filename E:RIPS10 – Timeless.wav

Pre-gap length 0:00:02.50

Peak level 52.1 %
Extraction speed 3.1 X
Track quality 100.0 %
Test CRC D311DBA9
Copy CRC D311DBA9
Cannot be verified as accurate (confidence 2) [710978C4], AccurateRip returned [120D217F] (AR v2)
Copy OK

No tracks could be verified as accurate
You may have a different pressing from the one(s) in the database

No errors occurred

End of status report

==== Log checksum F78E2385CF785F3BEAC044A31504889558346CB21092DB5A95EB41E141317606 ====

Halo - Halo (1990) / Heaven Calling (1991)
Halo – Heaven Calling (1991)
EAC Rip | FLAC: Tracks+Cue+Log | 342 Mb | MP3 CBR 320 kbps | 134 Mb | Scans | Time: 44:05
Pakaderm Records | 7012511265

Track Listing

01. Jacob’s Dream (04:40)
02. It’s Your Decision (04:22)
03. Saved By Grace (04:21)
04. Heaven Calling (04:42)
05. Thy Will Be Done (04:06)
06. Secret To Love (04:40)
07. Climb The Mountain (04:02)
08. Eye Of The Storm (04:51)
09. Man From Galilee (04:06)
10. My Buddy (04:16)

Produced by John & Dino Elefante

The Band

• Scott Springer – bass, lead vocals
• Barry Graul – guitar, vocals
• Mike Graham – drums, keyboards, vocals

*****
• John Elefante – keyboards, backing vocals
• Glen Pearce – guitars
• Ron Eglett – lap steel
• Larry Meyers – mandolin
• Doug Beiden, Scott Springer – backing vocals

EAC Log
Exact Audio Copy V1.0 beta 3 from 29. August 2011

EAC extraction logfile from 5. January 2012, 17:57

HALO / Heaven Calling

Used drive : Optiarc DVD RW AD-7203S Adapter: 0 ID: 0

Read mode : Secure
Utilize accurate stream : Yes
Defeat audio cache : Yes
Make use of C2 pointers : No

Read offset correction : 48
Overread into Lead-In and Lead-Out : No
Fill up missing offset samples with silence : Yes
Delete leading and trailing silent blocks : No
Null samples used in CRC calculations : Yes
Used interface : Native Win32 interface for Win NT & 2000
Gap handling : Appended to previous track

Used output format : User Defined Encoder
Selected bitrate : 768 kBit/s
Quality : High
Add ID3 tag : No
Command line compressor : C:Program FilesExact Audio CopyFLACFLAC.EXE
Additional command line options : -V -8 -T "Genre=%genre%" -T "Artist=%artist%" -T "Title=%title%" -T "Album=%albumtitle%" -T "Date=%year%" -T "Tracknumber=%tracknr%" -T "Comment=%comment%" %source%

TOC of the extracted CD

Track | Start | Length | Start sector | End sector
––––––––––––––––––––––––––––-
1 | 0:00.00 | 4:39.50 | 0 | 20974
2 | 4:39.50 | 4:21.50 | 20975 | 40599
3 | 9:01.25 | 4:21.20 | 40600 | 60194
4 | 13:22.45 | 4:41.70 | 60195 | 81339
5 | 18:04.40 | 4:05.40 | 81340 | 99754
6 | 22:10.05 | 4:40.00 | 99755 | 120754
7 | 26:50.05 | 4:01.58 | 120755 | 138887
8 | 30:51.63 | 4:50.67 | 138888 | 160704
9 | 35:42.55 | 4:05.50 | 160705 | 179129
10 | 39:48.30 | 4:16.13 | 179130 | 198342

Track 1

Filename E:RIPS1 – Jacob’s Dream.wav

Pre-gap length 0:00:02.00

Peak level 99.9 %
Extraction speed 2.6 X
Track quality 100.0 %
Test CRC BCAC9BF0
Copy CRC BCAC9BF0
Cannot be verified as accurate (confidence 5) [D348B267], AccurateRip returned [212F4E68] (AR v2)
Copy OK

Track 2

Filename E:RIPS2 – It’s Your Decision.wav

Peak level 100.0 %
Extraction speed 2.9 X
Track quality 100.0 %
Test CRC 904488AE
Copy CRC 904488AE
Cannot be verified as accurate (confidence 5) [9E21FD8C], AccurateRip returned [B15C2FA8] (AR v2)
Copy OK

Track 3

Filename E:RIPS3 – Saved By Grace.wav

Peak level 100.0 %
Extraction speed 2.7 X
Track quality 99.9 %
Test CRC 35FC64B4
Copy CRC 35FC64B4
Cannot be verified as accurate (confidence 5) [ED115DAA], AccurateRip returned [0183BD57] (AR v2)
Copy OK

Track 4

Filename E:RIPS4 – Heaven Calling.wav

Peak level 98.7 %
Extraction speed 3.4 X
Track quality 100.0 %
Test CRC A120CD74
Copy CRC A120CD74
Cannot be verified as accurate (confidence 5) [19E8F15E], AccurateRip returned [1E8DA6AA] (AR v2)
Copy OK

Track 5

Filename E:RIPS5 – Thy Will Be Done.wav

Peak level 79.5 %
Extraction speed 3.5 X
Track quality 100.0 %
Test CRC 5076BE1F
Copy CRC 5076BE1F
Cannot be verified as accurate (confidence 5) [4A07E0A5], AccurateRip returned [4B29BDC0] (AR v2)
Copy OK

Track 6

Filename E:RIPS6 – Secret To Love.wav

Peak level 97.9 %
Extraction speed 3.7 X
Track quality 100.0 %
Test CRC E054DD1B
Copy CRC E054DD1B
Cannot be verified as accurate (confidence 5) [C8F7DBAC], AccurateRip returned [DE53CCD0] (AR v2)
Copy OK

Track 7

Filename E:RIPS7 – Climb The Mountain.wav

Peak level 99.1 %
Extraction speed 3.9 X
Track quality 100.0 %
Test CRC 3AECAD88
Copy CRC 3AECAD88
Cannot be verified as accurate (confidence 5) [09F7817F], AccurateRip returned [ABBCB136] (AR v2)
Copy OK

Track 8

Filename E:RIPS8 – Eye Of The Storm.wav

Peak level 100.0 %
Extraction speed 4.2 X
Track quality 100.0 %
Test CRC EE099BC9
Copy CRC EE099BC9
Cannot be verified as accurate (confidence 5) [12A57DA1], AccurateRip returned [58F00C9B] (AR v2)
Copy OK

Track 9

Filename E:RIPS9 – Man From Galilee.wav

Peak level 100.0 %
Extraction speed 3.7 X
Track quality 99.9 %
Test CRC B5C5BCB2
Copy CRC B5C5BCB2
Cannot be verified as accurate (confidence 5) [74BD8E4B], AccurateRip returned [A582B153] (AR v2)
Copy OK

Track 10

Filename E:RIPS10 – My Buddy.wav

Peak level 83.8 %
Extraction speed 4.4 X
Track quality 100.0 %
Test CRC E9046886
Copy CRC E9046886
Cannot be verified as accurate (confidence 5) [87C52005], AccurateRip returned [B44FF723] (AR v2)
Copy OK

No tracks could be verified as accurate
You may have a different pressing from the one(s) in the database

No errors occurred

End of status report

==== Log checksum D71B28ECBD59D1B61A68B4CCDFF72F894387FE6E0A1106E7C3E0E0C60EB76849 ====

Many thanks to the original uploader: Dimitrius40

SEE also:
John Elefante – Discography (1995-2013)

Mastedon – Discography (1989-2009)

Petra 1974 Petra [Reissue 1992]
Petra 1977 Come And Join Us [Reissue 1995]
Petra 1979 Washes Whiter Than / 1981 Never Say Die [Reissue 1988]
Petra 1982 More Power To Ya
Petra 1983 Not Of This World
Petra 1984 Beat The System
Petra 1986 Captured In Time And Space (Live)
Petra 1986 Captured In Time And Space (Live) [DVD]
Petra 1986 Back To The Street
Petra 1987 This Means War!
Petra 1988 On Fire!
Petra 1989 Petra Means Rock [Compilation]
Petra 1989 Petra Praise… The Rock Cries Out
Petra 1990 Beyond Belief
Petra 1990 Beyond Belief [DVD]
Petra 1991 Unseen Power
Petra 1993 Wake-Up Call
Petra 1995 No Doubt
Petra 1997 Petra Praise 2: We Need Jesus
Petra 1998 God Fixation
Petra 2000 Double Take
Petra 2001 Revival
Petra 2003 Jekyll & Hyde
Petra 2003 The Power Of Praise [Compilation]
Petra 2006 Farewell [DVD]
II Guys From Petra 2007 Vertical Expressions
Classic Petra 2010 Back To The Rock

V.A. 1996 Never Say Dinosaur – Tribute To Petra

……
Welcome to My Blog for more wonderful music!
……

Halo – Halo (1990) / Heaven Calling (1991) Download, Warez, DDL, Free, Full Album, Torrent, Legal.

Download