Gregory Porter – Live In Berlin (2016)

Download
Gregory Porter - Live In Berlin (2016)

Gregory Porter – Live In Berlin (2016)
EAC Rip | FLAC (Tracks) +cue, log, artworks – 800 MB | MP3 CBR 320 kbps – 268 MB | 01:55:50
Jazz, Vocal Jazz, Soul | Label: Eagle Rock Entertainment | Release Year: 2016

This concert, filmed at the Philharmonie Berlin on the May 18th, 2016, captures Gregory Porter and his superb band performing tracks from across his career. With minimal staging, simple lighting and the audience on all sides, the focus is totally on the music allowing Gregory Porter’s sublime voice to bring out the light and shade in his songs. This is an absolute treat for any Gregory Porter fan.

TRACKLIST

CD1:

01. Holding On
02. On My Way To Harlem / What’s Going On
03. Take Me To The Alley
04. Don’t Lose Your Steam
05. Hey Laura
06. Liquid Spirit
07. Consequence Of Love

EAC
Exact Audio Copy V1.1 from 23. June 2015

EAC extraction logfile from 19. November 2016, 18:13

Gregory Porter / Live In Berlin (CD1)

Used drive : PLEXTOR DVDR PX-L890SA Adapter: 1 ID: 1

Read mode : Secure
Utilize accurate stream : Yes
Defeat audio cache : Yes
Make use of C2 pointers : No

Read offset correction : 6
Overread into Lead-In and Lead-Out : No
Fill up missing offset samples with silence : Yes
Delete leading and trailing silent blocks : No
Null samples used in CRC calculations : Yes
Used interface : Native Win32 interface for Win NT & 2000
Gap handling : Appended to previous track

Used output format : User Defined Encoder
Selected bitrate : 128 kBit/s
Quality : High
Add ID3 tag : No
Command line compressor : C:Program Files (x86)Exact Audio CopyFLACFLAC.EXE
Additional command line options : -8 -V -T "ARTIST=%artist%" -T "TITLE=%title%" -T "ALBUM=%albumtitle%" -T "DATE=%year%" -T "TRACKNUMBER=%tracknr%" -T "TOTALTRACKS=%numtracks%" -T "GENRE=%genre%" -T "ALBUMARTIST=%albumartist%" -T "ALBUM ARTIST=%albumartist%" -T "COMMENT=EAC Secure Mode, Test & Copy, AccurateRip, FLAC -8" %source%

TOC of the extracted CD

Track | Start | Length | Start sector | End sector
––––––––––––––––––––––––––––-
1 | 0:00.00 | 7:18.21 | 0 | 32870
2 | 7:18.21 | 8:37.72 | 32871 | 71717
3 | 15:56.18 | 10:04.66 | 71718 | 117083
4 | 26:01.09 | 4:17.44 | 117084 | 136402
5 | 30:18.53 | 4:28.01 | 136403 | 156503
6 | 34:46.54 | 6:44.54 | 156504 | 186857
7 | 41:31.33 | 3:51.18 | 186858 | 204200

Track 1

Filename D:Flac Rips1 – Holding On.wav

Pre-gap length 0:00:02.00

Peak level 100.0 %
Extraction speed 3.8 X
Track quality 100.0 %
Test CRC DDA03C60
Copy CRC DDA03C60
Track not present in AccurateRip database
Copy OK

Track 2

Filename D:Flac Rips2 – On My Way To Harlem-What’s Going On.wav

Peak level 100.0 %
Extraction speed 4.6 X
Track quality 100.0 %
Test CRC BF2CA054
Copy CRC BF2CA054
Track not present in AccurateRip database
Copy OK

Track 3

Filename D:Flac Rips3 – Take Me To The Alley.wav

Peak level 99.1 %
Extraction speed 4.8 X
Track quality 99.9 %
Test CRC F5C1C071
Copy CRC F5C1C071
Track not present in AccurateRip database
Copy OK

Track 4

Filename D:Flac Rips4 – Don’t Lose Your Steam.wav

Peak level 100.0 %
Extraction speed 5.4 X
Track quality 100.0 %
Test CRC 3661D11D
Copy CRC 3661D11D
Track not present in AccurateRip database
Copy OK

Track 5

Filename D:Flac Rips5 – Hey Laura.wav

Peak level 100.0 %
Extraction speed 5.6 X
Track quality 100.0 %
Test CRC F2C65D99
Copy CRC F2C65D99
Track not present in AccurateRip database
Copy OK

Track 6

Filename D:Flac Rips6 – Liquid Spirit.wav

Peak level 100.0 %
Extraction speed 5.4 X
Track quality 99.9 %
Test CRC 9260353A
Copy CRC 9260353A
Track not present in AccurateRip database
Copy OK

Track 7

Filename D:Flac Rips7 – Consequence of Love.wav

Peak level 100.0 %
Extraction speed 6.1 X
Track quality 100.0 %
Test CRC 948B345D
Copy CRC 948B345D
Track not present in AccurateRip database
Copy OK

None of the tracks are present in the AccurateRip database

No errors occurred

End of status report

–– CUETools DB Plugin V2.1.6

[CTDB TOCID: 8TSqtLXDn8vEppZDj6G.dV9XWrg-] found
Submit result: 8TSqtLXDn8vEppZDj6G.dV9XWrg- has been confirmed
Track | CTDB Status
1 | (1/1) Accurately ripped
2 | (1/1) Accurately ripped
3 | (1/1) Accurately ripped
4 | (1/1) Accurately ripped
5 | (1/1) Accurately ripped
6 | (1/1) Accurately ripped
7 | (1/1) Accurately ripped

==== Log checksum DA031DCFAF4C45E6496069069B4B01DFB9B50558D2B807AFF751895905252E86 ====

CD2:

01. Bass Solo / Papa Was A Rolling Stone
02. Musical Genocide
03. Don’t Be A Fool
04. Work Song / Drum Solo
05. In Fashion
06. Be Good (Lion’s Song)
07. 1960 What?
08. Water Under Bridges
09. Free / Thank You (Falettinme Be Mice Elf Agin)

EAC
Exact Audio Copy V1.0 beta 3 from 29. August 2011

EAC extraction logfile from 19. November 2016, 19:27

Gregory Porter / Live In Berlin (CD2)

Used drive : ASUS DRW-24F1ST a Adapter: 0 ID: 0

Read mode : Secure
Utilize accurate stream : Yes
Defeat audio cache : Yes
Make use of C2 pointers : No

Read offset correction : 6
Overread into Lead-In and Lead-Out : No
Fill up missing offset samples with silence : Yes
Delete leading and trailing silent blocks : No
Null samples used in CRC calculations : Yes
Used interface : Native Win32 interface for Win NT & 2000
Gap handling : Appended to previous track

Used output format : User Defined Encoder
Selected bitrate : 128 kBit/s
Quality : High
Add ID3 tag : No
Command line compressor : C:Program Files (x86)Exact Audio CopyFLACFLAC.EXE
Additional command line options : -8 -V -T "ARTIST=%artist%" -T "TITLE=%title%" -T "ALBUM=%albumtitle%" -T "DATE=%year%" -T "TRACKNUMBER=%tracknr%" -T "TOTALTRACKS=%numtracks%" -T "GENRE=%genre%" -T "ALBUMARTIST=%albumartist%" -T "ALBUM ARTIST=%albumartist%" -T "COMMENT=EAC Secure Mode, Test & Copy, AccurateRip, FLAC -8" %source%

TOC of the extracted CD

Track | Start | Length | Start sector | End sector
––––––––––––––––––––––––––––-
1 | 0:00.00 | 4:53.30 | 0 | 22004
2 | 4:53.30 | 11:59.58 | 22005 | 75987
3 | 16:53.13 | 6:16.68 | 75988 | 104255
4 | 23:10.06 | 10:00.01 | 104256 | 149256
5 | 33:10.07 | 5:09.48 | 149257 | 172479
6 | 38:19.55 | 7:09.47 | 172480 | 204701
7 | 45:29.27 | 9:27.08 | 204702 | 247234
8 | 54:56.35 | 4:17.63 | 247235 | 266572
9 | 59:14.23 | 11:13.55 | 266573 | 317102

Track 1

Filename I:EAC1 – Bass Solo – Papa Was A Rolling Stone.wav

Pre-gap length 0:00:02.00

Peak level 100.0 %
Extraction speed 5.0 X
Track quality 100.0 %
Test CRC 6160DCD5
Copy CRC 6160DCD5
Track not present in AccurateRip database
Copy OK

Track 2

Filename I:EAC2 – Musical Genocide.wav

Peak level 100.0 %
Extraction speed 6.0 X
Track quality 99.9 %
Test CRC 26554C56
Copy CRC 26554C56
Track not present in AccurateRip database
Copy OK

Track 3

Filename I:EAC3 – Don’t Be A Fool.wav

Peak level 100.0 %
Extraction speed 6.8 X
Track quality 100.0 %
Test CRC FF9F120F
Copy CRC FF9F120F
Track not present in AccurateRip database
Copy OK

Track 4

Filename I:EAC4 – Work Song – Drum Solo.wav

Peak level 100.0 %
Extraction speed 7.8 X
Track quality 100.0 %
Test CRC 00482EED
Copy CRC 00482EED
Track not present in AccurateRip database
Copy OK

Track 5

Filename I:EAC5 – In Fashion.wav

Peak level 100.0 %
Extraction speed 7.7 X
Track quality 100.0 %
Test CRC 3FEF54DB
Copy CRC 3FEF54DB
Track not present in AccurateRip database
Copy OK

Track 6

Filename I:EAC6 – Be Good (Lion’s Song).wav

Peak level 97.5 %
Extraction speed 7.7 X
Track quality 99.9 %
Test CRC 7E6F03CA
Copy CRC 7E6F03CA
Track not present in AccurateRip database
Copy OK

Track 7

Filename I:EAC7 – 1960 What.wav

Peak level 100.0 %
Extraction speed 9.0 X
Track quality 100.0 %
Test CRC 27F772B9
Copy CRC 27F772B9
Track not present in AccurateRip database
Copy OK

Track 8

Filename I:EAC8 – Water Under Bridges.wav

Peak level 100.0 %
Extraction speed 8.7 X
Track quality 100.0 %
Test CRC F62F432B
Copy CRC F62F432B
Track not present in AccurateRip database
Copy OK

Track 9

Filename I:EAC9 – Free – Thank You (Falenttinme Be Mice Elf Agin).wav

Peak level 100.0 %
Extraction speed 7.9 X
Track quality 100.0 %
Test CRC AAE65906
Copy CRC AAE65906
Track not present in AccurateRip database
Copy OK

None of the tracks are present in the AccurateRip database

No errors occurred

End of status report

==== Log checksum FF502D7A6FAC3B9EF6FC1C03FF393A5FA240FC9940EA09119CA0C1769C02110B ====

All thanks go to the original releaser

Gregory Porter – Live In Berlin (2016) Download, Warez, DDL, Free, Full Album, Torrent, Legal.

Tags:

  • burundi rwanda genocide
  • Gregory Porter - Live in Berlin (2016) anbelk27
  • gregory porter flac torrent
  • Gregory porter live in berlin torrent
Download