Gounod – Romeo et Juliette (Yannick Nezet-Seguin) (2008) [BDRip 720p]

Download
Gounod - Romeo et Juliette (Yannick Nezet-Seguin) (2008) [BDRip 720p]

Gounod – Romeo et Juliette (Yannick Nezet-Seguin) (2008)
BDRip 1080p | MKV | AVC, 5474 Kbit/s, 1280 x 720 (1.778), 29.970 fps | 7.91 GB
Audio: DTS, 1510 Kbit/s, 5 channels, 48,0 kHz | Length: 02:41:00
Genre: Classical | Nitroflare/Filefactory/Bigfie

Rolando Villazón’s Roméo wins Juliette’s heart, with impassioned, refined singing of an emotionally and vocally demanding role. Directed by Bartlett Sher, who telegenically captures the fantastic natural scenery of the famous Felsenreitschule, this first ever production of Gounod ‘s Roméo at the Salzburg Festival benefits from Québecois conductor Yannick Nézet-Séguin’s innate understanding. Only 25 and film star beautiful, soprano Nino Machaidze embodies Juliette with unforced girlish charm, gorgeous tone and emotional heat.

Gounod - Romeo et Juliette (Yannick Nezet-Seguin) (2008) [BDRip 720p]

Gounod - Romeo et Juliette (Yannick Nezet-Seguin) (2008) [BDRip 720p]

Gounod - Romeo et Juliette (Yannick Nezet-Seguin) (2008) [BDRip 720p]

Gounod - Romeo et Juliette (Yannick Nezet-Seguin) (2008) [BDRip 720p]

Cast:
Juliette – Nino Machaidze
Romeo – Rolando Villazón
Frère Laurent – Mikhail Petrenko
Mercutio – Russell Braun
Stéphano – Cora Burggraaf
Le Comte Capulet – Falk Struckmann
Tybalt – Juan Francisco Gatell
Gertrude – Susanne Resmark
Le Duc de Vérone – Christian Van Horn
Le Comte Pâris – Mathias Hausmann
Grégorio – Jean-Luc Ballestra
Benvolio – Robert Murray
Mozarteum Orchester Salzburg
Conductor – Yannick Nézet-Séguin

Tracklist

01. Opening Credits
Ouverture-Prologue
02. Vérone vit jadis deux familles rivales

Act 1
03. L’heure s’envole
04. Ecoutez! écoutez!
05. Enfin la place est libre, amis!
06. Mab, la reine des mensonges
07. Eh! bien! que l’avertissement
08. "Ah, je veux vivre dans ce reve"
09. Le nom de cette belle enfant…Ange adorable
10. Madrigal: Ange adorable
11. Quelqu’un!…C’est mon cousin Tybalt!

Act 2
12. Entr’acte – O nuit! sous tes ailes obscurs
13. L’amour! l’amour! oui, son ardeur a troublé
14. Hélas! moi, le haïr!
15. Ecoute! on vient
16. O nuit divine! je t’implore
17. Ah! ne fuis pas encore!

Act 3
18. Entr’acte – Mon père! Dieu vous garde
19. "Dieu qui fit l’homme à ton image"
20. Depuis hier je cherche en vain mon maître
21. Ah! ah! voici nos gens
22. Allons! tu neme connais pas, Tybalt
23. Le Duc! Justice!

Act 4
24. Va! je t’ai pardonné
25. Roméo! Qu’as tu donc?
26. Juliette! Ah! le ciel soit loué
27. Mon père! tout m’accable!
28. "Dieu! Quel frisson court dans mes veines"
29. Ma fille, cède aux voeux

Act 5
30. Le sommeil de Juliette
31. C’est la!…Salut! Tombeau!
32. Où suis-je?
33. "Console-toi- pauvre âme"

MediaInfo
General
Unique ID : 216627247744497939104257855342079548383 (0xA2F8E3EC052A49BCA840FA2E6A969BDF)
Complete name : C:UsersgguDesktopgguRomeo_et_Juliette_2008.mkv
Format : Matroska
Format version : Version 1
File size : 7.91 GiB
Duration : 2 h 41 min
Overall bit rate : 6 988 kb/s
Movie name : "Encoded_by_HDBRiSe"
Encoded date : UTC 2009-05-05 17:55:31
Writing application : mkvmerge v2.6.0 (‘Kelly watch the Stars’) built on Mar 24 2009 15:23:17
Writing library : libebml v0.7.7 + libmatroska v0.8.1

Video
ID : 1
Format : AVC
Format/Info : Advanced Video Codec
Format profile : High@L4.1
Format settings, CABAC : Yes
Format settings, ReFrames : 4 frames
Codec ID : V_MPEG4/ISO/AVC
Duration : 2 h 41 min
Bit rate : 5 474 kb/s
Width : 1 280 pixels
Height : 720 pixels
Display aspect ratio : 16:9
Frame rate mode : Constant
Frame rate : 29.970 (30000/1001) FPS
Original frame rate : 29.970 (29970/1000) FPS
Color space : YUV
Chroma subsampling : 4:2:0
Bit depth : 8 bits
Scan type : Progressive
Bits/(Pixel*Frame) : 0.198
Stream size : 6.04 GiB (76%)
Title : HDBRiSe ™
Writing library : x264 core 67 r1145M d2e1e1c
Encoding settings : cabac=1 / ref=4 / deblock=1:-3:-3 / analyse=0x3:0x113 / me=umh / subme=9 / psy_rd=0.9:0.8 / mixed_ref=1 / me_range=24 / chroma_me=1 / trellis=2 / 8x8dct=1 / cqm=0 / deadzone=21,11 / chroma_qp_offset=-4 / threads=3 / nr=0 / decimate=1 / mbaff=0 / bframes=3 / b_pyramid=1 / b_adapt=1 / b_bias=0 / direct=3 / wpredb=1 / keyint=250 / keyint_min=25 / scenecut=40 / rc=2pass / bitrate=5474 / ratetol=1.0 / qcomp=0.60 / qpmin=10 / qpmax=51 / qpstep=4 / cplxblur=20.0 / qblur=0.5 / vbv_maxrate=40000 / vbv_bufsize=40000 / ip_ratio=1.40 / pb_ratio=1.30 / aq=1:1.00
Default : Yes
Forced : No

Audio
ID : 3
Format : DTS
Format/Info : Digital Theater Systems
Mode : 16
Format settings, Endianness : Big
Codec ID : A_DTS
Duration : 2 h 41 min
Bit rate mode : Constant
Bit rate : 1 509 kb/s
Channel(s) : 5 channels
Channel positions : Front: L C R, Side: L R
Sampling rate : 48.0 kHz
Frame rate : 93.750 FPS (512 spf)
Bit depth : 24 bits
Compression mode : Lossy
Stream size : 1.71 GiB (22%)
Title : HDBRiSe ™
Language : French
Default : Yes
Forced : No

Text
ID : 2
Format : ASS
Codec ID : S_TEXT/ASS
Codec ID/Info : Advanced Sub Station Alpha
Compression mode : Lossless
Title : HDBRiSe ™
Language : English
Default : Yes
Forced : No

Thanks to the original uploader

Gounod – Romeo et Juliette (Yannick Nezet-Seguin) (2008) [BDRip 720p] Download, Warez, DDL, Free, Full Album, Torrent, Legal.

Download