Goldbug – The Seven Dreams (2010)

Download
Goldbug - The Seven Dreams (2010)

Goldbug – The Seven Dreams (2010)
EAC Rip | FLAC (image+.cue+log) – 216 MB | MP3 CBR 320 kbps (LAME 3.93) – 92 MB | Covers – 51 MB
Genre: Instrumental Progressive Rock | RAR 3% Rec. | Label: 1K Recordings (1K016)

"The Seven Dreams" is an immersive autobiographical musical journey into the psyche of dreams featuring Theo Travis (Gong, Steven Wilson) on tenor sax, flute, and ambitronics, Tim Motzer on baritone guitar, prepared guitar, piano, loops, and electronics along with bassist Barry Meehan and wunderkind drummer Eric Slick (Adrian Belew Power Trio, Dr Dog).
We have a constantly percolating space-jazz, flecked with the radiant arcs of gleaming solos, notes colliding via irregular orbits, intriguing clusters of intense interplay, interspersed mysterious dissonant events of glitch-infused electronica. The strategic addition of UK sax and flute player, Theo Travis, shifts the gears and expertly stokes up The Seven Dreams’ fiery clamour exactly when needed.

Progarchives

Tracklist:
01. Shadow Memory
02. The Departure
03. Unraveling
04. Scratching The Thrid Eye
05. Elevation
06. The Past Is Still Present
07. Persistence Of A Memory

Total time: 39:11

EAC log
Exact Audio Copy V1.0 beta 3 from 29. August 2011

Отчёт EAC об извлечении, выполненном 8. октября 2013, 12:19

GOLDBUG / The Seven Dreams

Дисковод: TSSTcorpCDDVDW SH-224DB Adapter: 4 ID: 1

Режим чтения : Достоверность
Использование точного потока : Да
Отключение кэша аудио : Да
Использование указателей C2 : Нет

Коррекция смещения при чтении : 6
Способность читать области Lead-in и Lead-out : Нет
Заполнение пропущенных сэмплов тишиной : Да
Удаление блоков с тишиной в начале и конце : Нет
При вычислениях CRC использовались нулевые сэмплы : Да
Интерфейс : Встроенный Win32-интерфейс для Win NT/2000

Выходной формат : Внутренние WAV-операции
Формат сэмплов : 44.100 Гц; 16 бит; стерео

TOC извлечённого CD

Трек | Старт | Длительность | Начальный сектор | Конечный сектор
––––––––––––––––––––––––––––––––––-
1 | 0:00.00 | 0:58.68 | 0 | 4417
2 | 0:58.68 | 3:44.73 | 4418 | 21290
3 | 4:43.66 | 2:22.67 | 21291 | 32007
4 | 7:06.58 | 11:18.73 | 32008 | 82930
5 | 18:25.56 | 4:00.56 | 82931 | 100986
6 | 22:26.37 | 11:28.72 | 100987 | 152658
7 | 33:55.34 | 5:16.01 | 152659 | 176359

Характеристики диапазона извлечения и сообщения об ошибках

Выбранный диапазон

Имя файла D:TEMPGOLDBUG – 2010 – The Seven Dreams.wav

Пиковый уровень 98.8 %
Скорость извлечения 2.8 X
Качество диапазона 100.0 %
CRC теста 599FA0B6
CRC копии 599FA0B6
Копирование… OK

Ошибок не произошло

AccurateRip: сводка

Трек 1 отсутствует в базе данных
Трек 2 отсутствует в базе данных
Трек 3 : извлечено точно (доверие 1) [98413532] (AR v2)
Трек 4 : извлечено точно (доверие 1) [D3B77694] (AR v2)
Трек 5 : извлечено точно (доверие 1) [2500FD15] (AR v2)
Трек 6 : извлечено точно (доверие 1) [91AE0230] (AR v2)
Трек 7 : извлечено точно (доверие 1) [08FE57D0] (AR v2)

5 трек(и) скопированы точно
2 трек(и) не содержатся в базе AccurateRip

Некоторые треки не прошли проверку на точность

Конец отчёта

CUETools log
[CUETools log; Date: 26.07.2017 13:10:24; Version: 2.1.4]
[CTDB TOCID: 0ps1cujN05yCfd_bWgwrrdnQSR0-] found.
Track | CTDB Status
1 | (1/1) Accurately ripped
2 | (1/1) Accurately ripped
3 | (1/1) Accurately ripped
4 | (1/1) Accurately ripped
5 | (1/1) Accurately ripped
6 | (1/1) Accurately ripped
7 | (1/1) Accurately ripped
[AccurateRip ID: 0008b51e-0038784c-4a092f07] found.
Track [ CRC | V2 ] Status
01 [2de4e310|3e36e2a2] (0+5/5) Accurately ripped
02 [26bc9372|91025c4f] (0+5/5) Accurately ripped
03 [d16a5186|98413532] (0+6/6) Accurately ripped
04 [fce0c654|d3b77694] (0+6/6) Accurately ripped
05 [95180eef|2500fd15] (0+6/6) Accurately ripped
06 [ab32e512|91ae0230] (0+6/6) Accurately ripped
07 [e4d869cd|08fe57d0] (0+6/6) Accurately ripped

Track Peak [ CRC32 ] [W/O NULL] [ LOG ]
– 98,8 [599FA0B6] [5ECB8329] CRC32
01 44,4 [81E5BB67] [D008BABE]
02 98,8 [66B9B73F] [90585295]
03 93,7 [3CC0D83B] [E4E1F68D]
04 98,8 [CC0660E1] [855BBB66]
05 98,8 [46EB9DCC] [2AA7D92D]
06 98,8 [D69D07A2] [CFC92FEF]
07 98,8 [D2A5EADB] [7C5FF6AD]

Thanks to spAceLover

Welcome to My Blog!

Goldbug – The Seven Dreams (2010) Download, Warez, DDL, Free, Full Album, Torrent, Legal.

Download