Giuni Russo – Fonte D'Amore (4CD) (2016)

Download
Giuni Russo - Fonte D'Amore (4CD) (2016)

Giuni Russo – Fonte D’Amore (4CD) (2016)
Pop/Rock, Electronic, Classical | EAC Rip | FLAC, Tracks+CUE+LOG+Scans (JPEG) | 02:02:05 h. | 924,29 Mb
Label: M.A.Sisini/GiuniRussoArte/A1 Entertainment S.p.A. (EU) | Released: 2016-11-18

“Fonte D’Amore” boxset contains 4 albums previously unreleased on CDs – “Giuni”, “Album”, “Il Ritorno Del Soldato Russo” and “Sharazad”.

Giuni Russo - Fonte D'Amore (4CD) (2016)

Release of this 4CD Set: 2016, November, 18 [CD M.A.Sisini/GiuniRussoArte/A1 Entertainment S.p.A. (EU), Cat.# 33334131-6 / UPC: 8058333341316]
©℗ 2016 M.A.Sisini – Associazione GiuniRussoArte
Distributed by A1 Entertainment S.p.A.
Made in E.U.

Credits:
Arranged By – Roberto Colombo (tracks: 1-1, 1-5, 2-1 to 2-9)
Arranged By [Coarrangiamenti] – Andrea Fornili (tracks: 2-1 to 2-9), Enzo Feliciati (tracks: 2-1 to 2-9), Giuni Russo (tracks: 2-1 to 2-9), Marcello Spooky (tracks: 2-1 to 2-9), Marco Colombo (tracks: 2-1 to 2-9)
Art Direction – Luciano Tallarini (tracks: 1-1 to 1-9)
Bass – Paolo Costa (tracks: 1-1 to 1-9), Paolo Costa (tracks: 2-1 to 2-9)
Choir – A. Pezzera (tracks: 2-1 to 2-9), A. Crucitti (tracks: 2-1 to 2-9), C. Moretti (tracks: 2-1 to 2-9), D. Cagna (tracks: 2-1 to 2-9), G. D’Onofrio (tracks: 2-1 to 2-9), G. Gualano (tracks: 2-1 to 2-9), I. Patrosso (tracks: 2-1 to 2-9), M. Defendi (tracks: 2-1 to 2-9), M. Gilardi (tracks: 2-1 to 2-9), M.A.Sisini (tracks: 2-1 to 2-9), P. Moretti (tracks: 2-1 to 2-9), P. Costa (tracks: 2-1 to 2-9), R. Barberis (tracks: 2-1 to 2-9), R. Della Torre (tracks: 2-1 to 2-9), P. Spagnolello (tracks: 2-1 to 2-9), W. Tesoriere (tracks: 2-1 to 2-9)
Drums, Percussion – Alfredo Golino (tracks: 1-1 to 1-9), Francesco "Sbidu" (tracks: 1-1 to 1-9), Lele Melotti (tracks: 1-1 to 1-9)
Electric Guitar – Marco Colombo (tracks: 2-1 to 2-9)
Electric Guitar, Acoustic Guitar – Andrea Fornili (tracks: 2-1 to 2-9)
Executive-Producer – Tony Ruggero (tracks: 2-1 to 2-9)
Graphics – Giuseppe Spada (tracks: 4-1 to 4-8)
Graphics [Sovrapposizione Di Immagini] – Natasha De Pozel (tracks: 2-1 to 2-9)
Guitar – Marco Colombo (tracks: 1-1 to 1-9)
Keyboards – Enzo Feliciati (tracks: 2-1 to 2-9), M. Fasolino (tracks: 1-1 to 1-9), Roberto Colombo (tracks: 1-1 to 1-9), Roberto Colombo (tracks: 2-1 to 2-9), S. Previsti (tracks: 1-1 to 1-9)
Mastered By – Pietro Caramelli (tracks: 3-1 to 3-8)
Mixed By – Pat Simonini (tracks: 3-1 to 3-8), Pino "Pinaxa" Pischetola (tracks: 4-1 to 4-8), Roberto Colombo (tracks: 2-1 to 2-9), Silvano Roggero (tracks: 2-1 to 2-9)
Other [Bijoux] – Sharra Pagano (tracks: 2-1 to 2-9)
Other [Make Up] – Beppe Tripoli (tracks: 2-1 to 2-9), Marco Dadà (tracks: 2-1 to 2-9)
Photography By – Associazione GiuniRussoArte (tracks: 3-1 to 3-8), Marco Giberti (tracks: 1-1 to 1-9)
Photography By [Cover Photo] – M. Balletti
Photography By, Graphics – Ale Gerini (tracks: 2-1 to 2-9)
Producer – Maria Antonietta Sisini (tracks: 1-1 to 4-8), Tony Ruggero (tracks: 1-1 to 1-9)
Producer [Post-production] – Pino "Pinaxa" Pischetola (tracks: 4-1 to 4-8)
Producer [Produzione Artistica] – M.A. Sisini (tracks: 2-1 to 2-9)
Programmed By [Programmazione Kurtzweill] – Gianfranco Gagliardi (tracks: 2-1 to 2-9)
Realization – E. Intra (tracks: 3-5, 3-6, 3-7, 3-8)
Realization [Demo Version] – F. Battiato (tracks: 3-1, 3-2, 3-3, 3-4), Giuni Russo (tracks: 3-1, 3-2, 3-3, 3-4), Marcello "Spooky" (tracks: 3-1, 3-2, 3-3, 3-4), R. Colombo (tracks: 3-1, 3-2, 3-3, 3-4), S. Barzan (tracks: 3-1, 3-2, 3-3, 3-4)
Recorded By – Silvano Roggero (tracks: 2-1 to 2-9)
Remastered By – Pino "Pinaxa" Pischetola
Saxophone – Emanuele Cisi (tracks: 1-1 to 1-9)
Violin [Scritti Da] – Sante Palumbo (tracks: 1-1 to 1-9)

Giuni Russo - Fonte D'Amore (4CD) (2016)

Giuni Russo – Disc 1 – "Giuni" (1986)
Pop/Rock, Electronic, Classical | EAC Rip | FLAC, Tracks+CUE+LOG+Scans (JPEG) | 31:56 Min. | 232,80 Mb
Label: M.A.Sisini/GiuniRussoArte/A1 Entertainment S.p.A. (EU) | Released: 2016-11-18 (1986)

Tracklist:

01. Alghero (04:07)
(Giuni Russo, M.A.Sisini)
02. I ragazzi del sole (03:14)
(Tripoli, Giuni Russo, M.A.Sisini)
03. Piove piove (03:37)
(Giuni Russo, M.A.Sisini)
04. Sogno d’oriente (03:48)
(Giuni Russo, M.A.Sisini)
05. Occhiali colorati (04:08)
(Giuni Russo, M.A.Sisini)
06. Con te (03:32)
(Giuni Russo, M.A.Sisini)
07. Glamour (03:31)
(Giuni Russo, M.A.Sisini)
08. Europa (03:55)
(Giuni Russo, M.A.Sisini)
09. Illusione (02:06)
(Giuni Russo, M.A.Sisini)

EAC log CD1
Exact Audio Copy V1.3 from 2. September 2016

EAC extraction logfile from 20. December 2016, 15:45

Giuni Russo / Fonte d’amore (cd1)

Used drive : ASUS BC-12D2HT Adapter: 0 ID: 0

Read mode : Secure
Utilize accurate stream : Yes
Defeat audio cache : Yes
Make use of C2 pointers : No

Read offset correction : 6
Overread into Lead-In and Lead-Out : No
Fill up missing offset samples with silence : Yes
Delete leading and trailing silent blocks : No
Null samples used in CRC calculations : Yes
Used interface : Installed external ASPI interface
Gap handling : Appended to previous track

Used output format : User Defined Encoder
Selected bitrate : 1024 kBit/s
Quality : High
Add ID3 tag : No
Command line compressor : C:Program Files (x86)Exact Audio CopyFLACFLAC.EXE
Additional command line options : -8 -V -T "ARTIST=%artist%" -T "TITLE=%title%" -T "ALBUM=%albumtitle%" -T "DATE=%year%" -T "TRACKNUMBER=%tracknr%" -T "GENRE=%genre%" -T "PERFORMER=%albuminterpret%" -T "COMPOSER=%composer%" %haslyrics%–tag-from-file=LYRICS="%lyricsfile%"%haslyrics% -T "ALBUMARTIST=%albumartist%" -T "DISCNUMBER=%cdnumber%" -T "TOTALDISCS=%totalcds%" -T "TOTALTRACKS=%numtracks%" -T "COMMENT= EAC Secure Mode, Test & Copy, AccurateRip, FLAC -8 %comment%" %source% -o %dest%

TOC of the extracted CD

Track | Start | Length | Start sector | End sector
––––––––––––––––––––––––––––-
1 | 0:00.00 | 4:07.04 | 0 | 18528
2 | 4:07.04 | 3:13.43 | 18529 | 33046
3 | 7:20.47 | 3:36.49 | 33047 | 49295
4 | 10:57.21 | 3:47.38 | 49296 | 66358
5 | 14:44.59 | 4:07.46 | 66359 | 84929
6 | 18:52.30 | 3:31.38 | 84930 | 100792
7 | 22:23.68 | 3:31.32 | 100793 | 116649
8 | 25:55.25 | 3:55.15 | 116650 | 134289
9 | 29:50.40 | 2:05.40 | 134290 | 143704

Track 1

Filename C:EAC1. Giuni Russo – Alghero.wav

Pre-gap length 0:00:02.00

Peak level 98.8 %
Extraction speed 4.4 X
Track quality 100.0 %
Test CRC 764C85B5
Copy CRC 764C85B5
Track not present in AccurateRip database
Copy OK

Track 2

Filename C:EAC2. Giuni Russo – I ragazzi del sole.wav

Peak level 98.8 %
Extraction speed 4.6 X
Track quality 100.0 %
Test CRC 085753B6
Copy CRC 085753B6
Track not present in AccurateRip database
Copy OK

Track 3

Filename C:EAC3. Giuni Russo – Piove piove.wav

Peak level 98.8 %
Extraction speed 5.2 X
Track quality 100.0 %
Test CRC FE902B2B
Copy CRC FE902B2B
Track not present in AccurateRip database
Copy OK

Track 4

Filename C:EAC4. Giuni Russo – Sogno d’oriente.wav

Peak level 98.8 %
Extraction speed 5.5 X
Track quality 100.0 %
Test CRC 245EADC1
Copy CRC 245EADC1
Track not present in AccurateRip database
Copy OK

Track 5

Filename C:EAC5. Giuni Russo – Occhiali colorati.wav

Peak level 98.8 %
Extraction speed 5.9 X
Track quality 100.0 %
Test CRC C5F3D8BC
Copy CRC C5F3D8BC
Track not present in AccurateRip database
Copy OK

Track 6

Filename C:EAC6. Giuni Russo – Con te.wav

Peak level 98.8 %
Extraction speed 5.1 X
Track quality 99.9 %
Test CRC 7A028C84
Copy CRC 7A028C84
Track not present in AccurateRip database
Copy OK

Track 7

Filename C:EAC7. Giuni Russo – Glamour.wav

Peak level 98.8 %
Extraction speed 6.4 X
Track quality 100.0 %
Test CRC 6980FE33
Copy CRC 6980FE33
Track not present in AccurateRip database
Copy OK

Track 8

Filename C:EAC8. Giuni Russo – Europa.wav

Peak level 98.8 %
Extraction speed 6.7 X
Track quality 100.0 %
Test CRC FCA39BD8
Copy CRC FCA39BD8
Track not present in AccurateRip database
Copy OK

Track 9

Filename C:EAC9. Giuni Russo – Illusione.wav

Peak level 98.8 %
Extraction speed 4.9 X
Track quality 99.9 %
Test CRC 0D2821A7
Copy CRC 0D2821A7
Track not present in AccurateRip database
Copy OK

None of the tracks are present in the AccurateRip database

No errors occurred

End of status report

–– CUETools DB Plugin V2.1.6

[CTDB TOCID: yAUGlxUw0D4Dma3C_3jBfedlEHc-] disk not present in database
Submit result: yAUGlxUw0D4Dma3C_3jBfedlEHc- has been uploaded

==== Log checksum EADB59460C587CB143DABF8D9526F78E4713FBB95D1891EF62D004C34D07BCA2 ====

Dynamic Range Meter log CD1
––––––––––––––––––––––––––––––––––––––––
Analyzed: Giuni Russo / Fonte d’amore (cd1)
––––––––––––––––––––––––––––––––––––––––

DR Peak RMS Duration Track
––––––––––––––––––––––––––––––––––––––––
DR5 -0.10 dB -7.10 dB 4:07 01-Alghero
DR5 -0.10 dB -7.53 dB 3:14 02-I ragazzi del sole
DR6 -0.10 dB -7.81 dB 3:37 03-Piove piove
DR7 -0.10 dB -8.46 dB 3:48 04-Sogno d’oriente
DR5 -0.10 dB -7.21 dB 4:08 05-Occhiali colorati
DR5 -0.10 dB -7.54 dB 3:32 06-Con te
DR6 -0.10 dB -8.40 dB 3:31 07-Glamour
DR6 -0.10 dB -8.41 dB 3:55 08-Europa
DR7 -0.10 dB -8.86 dB 2:06 09-Illusione
––––––––––––––––––––––––––––––––––––––––

Number of tracks: 9
Official DR value: DR6

Samplerate: 44100 Hz
Channels: 2
Bits per sample: 16
Bitrate: 951 kbps
Codec: FLAC
================================================================================

Giuni Russo - Fonte D'Amore (4CD) (2016)

Giuni Russo – Disc 2 – "Album" (1987)
Pop/Rock, Electronic, Classical | EAC Rip | FLAC, Tracks+CUE+LOG+Scans (JPEG) | 33:34 Min. | 249,83 Mb
Label: M.A.Sisini/GiuniRussoArte/A1 Entertainment S.p.A. (EU) | Released: 2016-11-18 (1987)

Tracklist:

01. Ragazzi al luna park (04:13)
(Giuni Russo, M.A. Sisini)
02. Anima pagana (03:25)
(Giuni Russo, M.A. Sisini)
03. Alla luna [04:33)
(Giuni Russo, M.A. Sisini)
04. Adrenalina (feat. Rettore) (03:39)
(Giuni Russo, M.A. Sisini)
05. Mango, papaja (03:38)
(Giuni Russo, M.A. Sisini)
06. I giardini di eros (04:00)
(Giuni Russo, M.A. Sisini)
07. Inverno a Sarajevo (03:37)
(Giuni Russo, M.A. Sisini)
08. Venere ciprea (03:44)
(Giuni Russo, M.A. Sisini)
09. Il canto dei lillà (02:45)
(Giuni Russo, M.A. Sisini)

EAC log CD2
Exact Audio Copy V1.3 from 2. September 2016

EAC extraction logfile from 20. December 2016, 16:05

Giuni Russo / Fonte d’amore (cd2)

Used drive : ASUS BC-12D2HT Adapter: 0 ID: 0

Read mode : Secure
Utilize accurate stream : Yes
Defeat audio cache : Yes
Make use of C2 pointers : No

Read offset correction : 6
Overread into Lead-In and Lead-Out : No
Fill up missing offset samples with silence : Yes
Delete leading and trailing silent blocks : No
Null samples used in CRC calculations : Yes
Used interface : Installed external ASPI interface
Gap handling : Appended to previous track

Used output format : User Defined Encoder
Selected bitrate : 1024 kBit/s
Quality : High
Add ID3 tag : No
Command line compressor : C:Program Files (x86)Exact Audio CopyFLACFLAC.EXE
Additional command line options : -8 -V -T "ARTIST=%artist%" -T "TITLE=%title%" -T "ALBUM=%albumtitle%" -T "DATE=%year%" -T "TRACKNUMBER=%tracknr%" -T "GENRE=%genre%" -T "PERFORMER=%albuminterpret%" -T "COMPOSER=%composer%" %haslyrics%–tag-from-file=LYRICS="%lyricsfile%"%haslyrics% -T "ALBUMARTIST=%albumartist%" -T "DISCNUMBER=%cdnumber%" -T "TOTALDISCS=%totalcds%" -T "TOTALTRACKS=%numtracks%" -T "COMMENT= EAC Secure Mode, Test & Copy, AccurateRip, FLAC -8 %comment%" %source% -o %dest%

TOC of the extracted CD

Track | Start | Length | Start sector | End sector
––––––––––––––––––––––––––––-
1 | 0:00.00 | 4:13.28 | 0 | 19002
2 | 4:13.28 | 3:25.12 | 19003 | 34389
3 | 7:38.40 | 4:33.03 | 34390 | 54867
4 | 12:11.43 | 3:38.66 | 54868 | 71283
5 | 15:50.34 | 3:37.38 | 71284 | 87596
6 | 19:27.72 | 4:00.21 | 87597 | 105617
7 | 23:28.18 | 3:36.47 | 105618 | 121864
8 | 27:04.65 | 3:43.44 | 121865 | 138633
9 | 30:48.34 | 2:45.07 | 138634 | 151015

Track 1

Filename C:EAC1. Giuni Russo – Ragazzi al luna park.wav

Pre-gap length 0:00:02.00

Peak level 98.8 %
Extraction speed 4.4 X
Track quality 100.0 %
Test CRC 738898F5
Copy CRC 738898F5
Track not present in AccurateRip database
Copy OK

Track 2

Filename C:EAC2. Giuni Russo – Anima pagana.wav

Peak level 98.8 %
Extraction speed 3.9 X
Track quality 99.9 %
Test CRC CCA62022
Copy CRC CCA62022
Track not present in AccurateRip database
Copy OK

Track 3

Filename C:EAC3. Giuni Russo – Alla luna.wav

Peak level 98.8 %
Extraction speed 5.4 X
Track quality 100.0 %
Test CRC 9F603319
Copy CRC 9F603319
Track not present in AccurateRip database
Copy OK

Track 4

Filename C:EAC4. Giuni Russo – Adrenalina.wav

Peak level 98.8 %
Extraction speed 5.6 X
Track quality 100.0 %
Test CRC 9ADED4A0
Copy CRC 9ADED4A0
Track not present in AccurateRip database
Copy OK

Track 5

Filename C:EAC5. Giuni Russo – Mango, papaja.wav

Peak level 98.8 %
Extraction speed 6.0 X
Track quality 100.0 %
Test CRC 133E330B
Copy CRC 133E330B
Track not present in AccurateRip database
Copy OK

Track 6

Filename C:EAC6. Giuni Russo – I giardini di eros.wav

Peak level 98.8 %
Extraction speed 6.4 X
Track quality 100.0 %
Test CRC 2A05A6B5
Copy CRC 2A05A6B5
Track not present in AccurateRip database
Copy OK

Track 7

Filename C:EAC7. Giuni Russo – Inverno a Sarajevo.wav

Peak level 98.8 %
Extraction speed 6.6 X
Track quality 100.0 %
Test CRC 96AA0B9A
Copy CRC 96AA0B9A
Track not present in AccurateRip database
Copy OK

Track 8

Filename C:EAC8. Giuni Russo – Venere ciprea.wav

Peak level 98.8 %
Extraction speed 6.8 X
Track quality 100.0 %
Test CRC A08DE656
Copy CRC A08DE656
Track not present in AccurateRip database
Copy OK

Track 9

Filename C:EAC9. Giuni Russo – Il canto dei lillà.wav

Peak level 98.8 %
Extraction speed 6.7 X
Track quality 100.0 %
Test CRC 62F155FC
Copy CRC 62F155FC
Track not present in AccurateRip database
Copy OK

None of the tracks are present in the AccurateRip database

No errors occurred

End of status report

–– CUETools DB Plugin V2.1.6

[CTDB TOCID: 3__U18Dh.bRhcNw.MsVqoK8OBvI-] disk not present in database
Submit result: 3__U18Dh.bRhcNw.MsVqoK8OBvI- has been uploaded

==== Log checksum 42552E85E4881FA1344B4AF90BA6F5A6785B27B847A6E932CA52331284FB5FC7 ====

Dynamic Range Meter log CD2
––––––––––––––––––––––––––––––––––––––––
Analyzed: Giuni Russo / Fonte d’amore (cd2)
––––––––––––––––––––––––––––––––––––––––

DR Peak RMS Duration Track
––––––––––––––––––––––––––––––––––––––––
DR5 -0.10 dB -6.61 dB 4:13 01-Ragazzi al luna park
DR5 -0.10 dB -6.93 dB 3:25 02-Anima pagana
DR3 -0.10 dB -5.05 dB 4:33 03-Alla luna
DR5 -0.10 dB -6.66 dB 3:39 04-Adrenalina
DR4 -0.10 dB -5.41 dB 3:38 05-Mango, papaja
DR4 -0.10 dB -5.65 dB 4:00 06-I giardini di eros
DR4 -0.10 dB -6.58 dB 3:37 07-Inverno a Sarajevo
DR5 -0.10 dB -6.27 dB 3:44 08-Venere ciprea
DR6 -0.10 dB -9.08 dB 2:45 09-Il canto dei lillà
––––––––––––––––––––––––––––––––––––––––

Number of tracks: 9
Official DR value: DR5

Samplerate: 44100 Hz
Channels: 2
Bits per sample: 16
Bitrate: 874 kbps
Codec: FLAC
================================================================================

Giuni Russo - Fonte D'Amore (4CD) (2016)

Giuni Russo – Disc 3 – "Il Ritorno Del Soldato Russo" (2014)
Pop/Rock, Electronic, Classical | EAC Rip | FLAC, Tracks+CUE+LOG+Scans (JPEG) | 27:05 Min. | 185,85 Mb
Label: M.A.Sisini/GiuniRussoArte/A1 Entertainment S.p.A. (EU) | Released: 2016-11-18 (2014)

Tracklist:

01. Giuni Russo – Tu che ne sai (04:08)
(Giuni Russo, M.A. Sisini)
02. Giuni Russo – Il ritorno del soldato (04:09)
(F. Battiato, G. Russo, M. Sgalambro, M.A. Sisini)
03. Giuni Russo – Le tue parole (Prima Stesura Di Morirò D’Amore) (04:21)
(Giuni Russo, M.A. Sisini, V. Magelli)
04. Giuni Russo – L’animale (03:28)
(F. Battiato)
05. Giuni Russo – Nell’anima (03:36)
(B. Tavernese)
06. Giuni Russo – M’è rimasto nel cuore (Many Rivers To Cross) (02:49)
(Jimmy Cliff)
07. Giuni Russo – Uomo piangi (02:15)
(P. Conte, V. Pallavicini)
08. Giuni Russo – Un milione un miliardo (02:19)
(P. Conte, V. Pallavicini)

EAC log CD3
Exact Audio Copy V1.3 from 2. September 2016

EAC extraction logfile from 20. December 2016, 16:22

Giuni Russo / Fonte d’amore (cd3)

Used drive : ASUS BC-12D2HT Adapter: 0 ID: 0

Read mode : Secure
Utilize accurate stream : Yes
Defeat audio cache : Yes
Make use of C2 pointers : No

Read offset correction : 6
Overread into Lead-In and Lead-Out : No
Fill up missing offset samples with silence : Yes
Delete leading and trailing silent blocks : No
Null samples used in CRC calculations : Yes
Used interface : Installed external ASPI interface
Gap handling : Appended to previous track

Used output format : User Defined Encoder
Selected bitrate : 1024 kBit/s
Quality : High
Add ID3 tag : No
Command line compressor : C:Program Files (x86)Exact Audio CopyFLACFLAC.EXE
Additional command line options : -8 -V -T "ARTIST=%artist%" -T "TITLE=%title%" -T "ALBUM=%albumtitle%" -T "DATE=%year%" -T "TRACKNUMBER=%tracknr%" -T "GENRE=%genre%" -T "PERFORMER=%albuminterpret%" -T "COMPOSER=%composer%" %haslyrics%–tag-from-file=LYRICS="%lyricsfile%"%haslyrics% -T "ALBUMARTIST=%albumartist%" -T "DISCNUMBER=%cdnumber%" -T "TOTALDISCS=%totalcds%" -T "TOTALTRACKS=%numtracks%" -T "COMMENT= EAC Secure Mode, Test & Copy, AccurateRip, FLAC -8 %comment%" %source% -o %dest%

TOC of the extracted CD

Track | Start | Length | Start sector | End sector
––––––––––––––––––––––––––––-
1 | 0:00.00 | 4:07.61 | 0 | 18585
2 | 4:07.61 | 4:09.01 | 18586 | 37261
3 | 8:16.62 | 4:21.25 | 37262 | 56861
4 | 12:38.12 | 3:27.40 | 56862 | 72426
5 | 16:05.52 | 3:36.29 | 72427 | 88655
6 | 19:42.06 | 2:49.05 | 88656 | 101335
7 | 22:31.11 | 2:14.62 | 101336 | 111447
8 | 24:45.73 | 2:19.12 | 111448 | 121884

Track 1

Filename C:EAC1. Giuni Russo – Tu che ne sai.wav

Pre-gap length 0:00:02.00

Peak level 98.4 %
Extraction speed 4.4 X
Track quality 100.0 %
Test CRC 97432787
Copy CRC 97432787
Track not present in AccurateRip database
Copy OK

Track 2

Filename C:EAC2. Giuni Russo – Il ritorno del soldato.wav

Peak level 98.0 %
Extraction speed 4.2 X
Track quality 99.9 %
Test CRC D5DFD6F0
Copy CRC D5DFD6F0
Track not present in AccurateRip database
Copy OK

Track 3

Filename C:EAC3. Giuni Russo – Le tue parole.wav

Peak level 99.9 %
Extraction speed 5.5 X
Track quality 100.0 %
Test CRC 6454DCFC
Copy CRC 6454DCFC
Track not present in AccurateRip database
Copy OK

Track 4

Filename C:EAC4. Giuni Russo – L’animale.wav

Peak level 99.9 %
Extraction speed 5.6 X
Track quality 100.0 %
Test CRC 028F6E79
Copy CRC 028F6E79
Track not present in AccurateRip database
Copy OK

Track 5

Filename C:EAC5. Giuni Russo – Nell’anima.wav

Peak level 98.9 %
Extraction speed 6.0 X
Track quality 100.0 %
Test CRC 42F8ACC6
Copy CRC 42F8ACC6
Track not present in AccurateRip database
Copy OK

Track 6

Filename C:EAC6. Giuni Russo – M’è rimasto nel cuore.wav

Peak level 99.0 %
Extraction speed 6.1 X
Track quality 100.0 %
Test CRC 93F614B6
Copy CRC 93F614B6
Track not present in AccurateRip database
Copy OK

Track 7

Filename C:EAC7. Giuni Russo – Uomo piangi.wav

Peak level 98.9 %
Extraction speed 6.0 X
Track quality 100.0 %
Test CRC 82FA228A
Copy CRC 82FA228A
Track not present in AccurateRip database
Copy OK

Track 8

Filename C:EAC8. Giuni Russo – Un milione un miliardo.wav

Peak level 98.9 %
Extraction speed 6.2 X
Track quality 100.0 %
Test CRC C7F592B6
Copy CRC C7F592B6
Track not present in AccurateRip database
Copy OK

None of the tracks are present in the AccurateRip database

No errors occurred

End of status report

–– CUETools DB Plugin V2.1.6

[CTDB TOCID: RA8YjjuxkvXvt_GSa53NfIp0Eak-] disk not present in database
Submit result: RA8YjjuxkvXvt_GSa53NfIp0Eak- has been uploaded

==== Log checksum 4A90AB936FC61EFD8727C0D4298962F5A7611B3E9F4426AC2B569B5491F1B9E6 ====

Dynamic Range Meter log CD3
––––––––––––––––––––––––––––––––––––––––
Analyzed: Giuni Russo / Fonte d’amore (cd3)
––––––––––––––––––––––––––––––––––––––––

DR Peak RMS Duration Track
––––––––––––––––––––––––––––––––––––––––
DR7 -0.14 dB -9.84 dB 4:08 01-Tu che ne sai
DR7 -0.17 dB -9.16 dB 4:09 02-Il ritorno del soldato
DR8 0.00 dB -10.42 dB 4:21 03-Le tue parole
DR6 0.00 dB -9.90 dB 3:28 04-L’animale
DR7 -0.09 dB -8.29 dB 3:36 05-Nell’anima
DR7 -0.08 dB -9.59 dB 2:49 06-M’è rimasto nel cuore
DR7 -0.09 dB -9.25 dB 2:15 07-Uomo piangi
DR7 -0.09 dB -8.46 dB 2:19 08-Un milione un miliardo
––––––––––––––––––––––––––––––––––––––––

Number of tracks: 8
Official DR value: DR7

Samplerate: 44100 Hz
Channels: 2
Bits per sample: 16
Bitrate: 1016 kbps
Codec: FLAC
================================================================================

Giuni Russo - Fonte D'Amore (4CD) (2016)

Giuni Russo – Disc 4 – "Sharazad" (2016)
Pop/Rock, Electronic, Classical | EAC Rip | FLAC, Tracks+CUE+LOG+Scans (JPEG) | 29:31 Min. | 211,70 Mb
Label: M.A.Sisini/GiuniRussoArte/A1 Entertainment S.p.A. (EU) | Released: 2016-11-18 (2016)

Tracklist:

01. Sharazad (Inedito) (03:35)
(Giuni Russo, M.A. Sisini)
02. Giochi di nuvole (Inedito) (03:55)
(Giuni Russo, M.A. Sisini)
03. Vestale (Inedito) (03:46)
(Giuni Russo)
04. Fonte d’amore (Inedito) (Demo Version) (04:33)
(Giuni Russo)
05. E si perde (Demo Version Di "Voce Che Grida") (03:50)
(Giuni Russo)
06. Fonti mobili (Demo Version) (03:51)
(D. Tortorella, G. Russo, M.A. Sisini)
07. Senza ragione (Demo Version) (02:38)
(Giuni Russo, M.A. Sisini)
08. Maria Guadalupe (Divertissement) (Demo Version) (03:23)
(Giuni Russo, M.A. Sisini)

EAC log CD4
Exact Audio Copy V1.3 from 2. September 2016

EAC extraction logfile from 20. December 2016, 16:42

Giuni Russo / Fonte d’amore (cd4)

Used drive : ASUS BC-12D2HT Adapter: 0 ID: 0

Read mode : Secure
Utilize accurate stream : Yes
Defeat audio cache : Yes
Make use of C2 pointers : No

Read offset correction : 6
Overread into Lead-In and Lead-Out : No
Fill up missing offset samples with silence : Yes
Delete leading and trailing silent blocks : No
Null samples used in CRC calculations : Yes
Used interface : Installed external ASPI interface
Gap handling : Appended to previous track

Used output format : User Defined Encoder
Selected bitrate : 1024 kBit/s
Quality : High
Add ID3 tag : No
Command line compressor : C:Program Files (x86)Exact Audio CopyFLACFLAC.EXE
Additional command line options : -8 -V -T "ARTIST=%artist%" -T "TITLE=%title%" -T "ALBUM=%albumtitle%" -T "DATE=%year%" -T "TRACKNUMBER=%tracknr%" -T "GENRE=%genre%" -T "PERFORMER=%albuminterpret%" -T "COMPOSER=%composer%" %haslyrics%–tag-from-file=LYRICS="%lyricsfile%"%haslyrics% -T "ALBUMARTIST=%albumartist%" -T "DISCNUMBER=%cdnumber%" -T "TOTALDISCS=%totalcds%" -T "TOTALTRACKS=%numtracks%" -T "COMMENT= EAC Secure Mode, Test & Copy, AccurateRip, FLAC -8 %comment%" %source% -o %dest%

TOC of the extracted CD

Track | Start | Length | Start sector | End sector
––––––––––––––––––––––––––––-
1 | 0:00.00 | 3:34.42 | 0 | 16091
2 | 3:34.42 | 3:54.56 | 16092 | 33697
3 | 7:29.23 | 3:46.05 | 33698 | 50652
4 | 11:15.28 | 4:33.32 | 50653 | 71159
5 | 15:48.60 | 3:50.08 | 71160 | 88417
6 | 19:38.68 | 3:51.15 | 88418 | 105757
7 | 23:30.08 | 2:37.71 | 105758 | 117603
8 | 26:08.04 | 3:22.45 | 117604 | 132798

Track 1

Filename C:EAC1. Giuni Russo – Sharazad.wav

Pre-gap length 0:00:02.00

Peak level 98.8 %
Extraction speed 4.3 X
Track quality 100.0 %
Test CRC 592E7A31
Copy CRC 592E7A31
Track not present in AccurateRip database
Copy OK

Track 2

Filename C:EAC2. Giuni Russo – Giochi di nuvole.wav

Peak level 98.8 %
Extraction speed 4.7 X
Track quality 100.0 %
Test CRC F6C221D2
Copy CRC F6C221D2
Track not present in AccurateRip database
Copy OK

Track 3

Filename C:EAC3. Giuni Russo – Vestale.wav

Peak level 82.4 %
Extraction speed 4.3 X
Track quality 99.9 %
Test CRC 7D3A5D34
Copy CRC 7D3A5D34
Track not present in AccurateRip database
Copy OK

Track 4

Filename C:EAC4. Giuni Russo – Fonte d’amore.wav

Peak level 98.8 %
Extraction speed 5.7 X
Track quality 100.0 %
Test CRC DA731A52
Copy CRC DA731A52
Track not present in AccurateRip database
Copy OK

Track 5

Filename C:EAC5. Giuni Russo – E si perde.wav

Peak level 98.8 %
Extraction speed 5.9 X
Track quality 100.0 %
Test CRC 5DC7005B
Copy CRC 5DC7005B
Track not present in AccurateRip database
Copy OK

Track 6

Filename C:EAC6. Giuni Russo – Fonti mobili.wav

Peak level 98.8 %
Extraction speed 6.2 X
Track quality 100.0 %
Test CRC 1042DEB3
Copy CRC 1042DEB3
Track not present in AccurateRip database
Copy OK

Track 7

Filename C:EAC7. Giuni Russo – Senza ragione.wav

Peak level 98.8 %
Extraction speed 6.2 X
Track quality 100.0 %
Test CRC DE28C37F
Copy CRC DE28C37F
Track not present in AccurateRip database
Copy OK

Track 8

Filename C:EAC8. Giuni Russo – Maria Guadalupe.wav

Peak level 98.8 %
Extraction speed 6.6 X
Track quality 100.0 %
Test CRC 7BBDDBC8
Copy CRC 7BBDDBC8
Track not present in AccurateRip database
Copy OK

None of the tracks are present in the AccurateRip database

No errors occurred

End of status report

–– CUETools DB Plugin V2.1.6

[CTDB TOCID: JcVHd4LmT4lbK9BgonFQ5VV9rjk-] disk not present in database
Submit result: JcVHd4LmT4lbK9BgonFQ5VV9rjk- has been uploaded

==== Log checksum B757C22E51E43E2949B0C865450774A52E9E68DC6A86384D14028203745C5315 ====

Dynamic Range Meter log CD4
––––––––––––––––––––––––––––––––––––––––
Analyzed: Giuni Russo / Fonte d’amore (cd4)
––––––––––––––––––––––––––––––––––––––––

DR Peak RMS Duration Track
––––––––––––––––––––––––––––––––––––––––
DR5 -0.10 dB -5.97 dB 3:35 01-Sharazad
DR8 -0.10 dB -10.51 dB 3:55 02-Giochi di nuvole
DR5 -1.67 dB -8.07 dB 3:46 03-Vestale
DR5 -0.10 dB -6.33 dB 4:33 04-Fonte d’amore
DR7 -0.10 dB -9.41 dB 3:50 05-E si perde
DR6 -0.10 dB -7.95 dB 3:51 06-Fonti mobili
DR10 -0.10 dB -13.31 dB 2:38 07-Senza ragione
DR9 -0.10 dB -10.36 dB 3:23 08-Maria Guadalupe
––––––––––––––––––––––––––––––––––––––––

Number of tracks: 8
Official DR value: DR7

Samplerate: 44100 Hz
Channels: 2
Bits per sample: 16
Bitrate: 878 kbps
Codec: FLAC
================================================================================

All thanks to the original releaser

Giuni Russo – Fonte D'Amore (4CD) (2016) Download, Warez, DDL, Free, Full Album, Torrent, Legal.

Tags:

  • fonte damore giuni russo torrent b
Download