Gillian Welch – Time (The Revelator) (2001) {Acony}

Download
Gillian Welch - Time (The Revelator) (2001) {Acony}

Gillian Welch – Time (The Revelator) (2001)
EAC Rip | FLAC (tracks+.cue, log) | Artwork | 258 mb | MP3 CBR 320kbps | RAR | 124 mb
Folk Rock, Country Rock | Label: Acony Records – ACNY-0103

Time (The Revelator) is the third full-length album by Gillian Welch. All songs were written by Welch together with David Rawlings and were recorded in Nashville, Tennessee. "I Want To Sing That Rock and Roll" was recorded live at the Ryman Auditorium as part of the sessions for the concert film, Down from the Mountain, all the rest of the tracks were recorded at RCA Studio B, Nashville, Tennessee.

Gillian Welch - Time (The Revelator) (2001) {Acony}

Gillian Welch’s third album, Time (The Revelator), finds the folk vocalist and musician shifting her attention from achingly beautiful mountain ballads to achingly beautiful pop/rock ballads. Regarding this album, Welch states: "As opposed to being little tiny folk songs or traditional songs, they’re really tiny rock songs. They’re just performed in this acoustic setting. In our heads we went electric without changing instruments." This philosophy is most evident in songs like "I Want to Sing That Rock and Roll" and "Elvis Presley Blues," with her longtime collaborator David Rawlings accompanying her on Louvin-esque high harmonies and vintage guitar.

Gillian Welch - Time (The Revelator) (2001) {Acony}

Fans of the duo’s neo-old-timey sound will be happy to hear a few of their familiar, intimate dust bowl folk songs peering through the fence posts. The banjo-driven "My First Lover" could’ve been recorded on Alan Lomax’s back porch, while the title track aches and moans along with the best of her two previous albums. Rawlings’ production on the album remains warm and intimate throughout, capturing the subtleties of the acoustic instruments and earthy harmonies. Highlights include the passionate romp "Red Clay Halo," which includes the best elements of time-honored folk stylings and their newfound passion for rock & roll, and the hushed awe that captures the audience in the Ryman Auditorium during the live recording of "I Want to Sing That Rock and Roll." Time (The Revelator) ends with an unprecedented 15-minute track called "I Dream a Highway," which drifts lazily through the album’s final moments, sweetly dozing in the current like Huck and Jim’s Mississippi River afternoons. Welch and Rawlings are at the top of their form and continue to make the best Americana recordings without resorting to drenching their albums in guest stars, but by writing and performing heartfelt songs that speak with a clear and undeniable honesty.

AllMusic Review by Zac Johnson

Tracklist:

01. Revelator
02. My First Lover
03. Dear Someone
04. Red Clay Halo
05. April The 14th Part 1
06. I Want To Sing That Rock And Roll
07. Elvis Presley Blues
08. Ruination Day Part 2
09. Everything Is Free
10. I Dream A Highway

Gillian Welch - Time (The Revelator) (2001) {Acony}
EAC log
Exact Audio Copy V0.99 prebeta 4 from 23. January 2008

EAC extraction logfile from 15. August 2009, 0:09

Gillian Welch / Time (The Revelator)

Used drive : PLEXTOR DVDR PX-760A Adapter: 0 ID: 0

Read mode : Secure
Utilize accurate stream : Yes
Defeat audio cache : Yes
Make use of C2 pointers : No

Read offset correction : 30
Overread into Lead-In and Lead-Out : No
Fill up missing offset samples with silence : Yes
Delete leading and trailing silent blocks : No
Null samples used in CRC calculations : Yes
Used interface : Native Win32 interface for Win NT & 2000
Gap handling : Appended to previous track

Used output format : Internal WAV Routines
Sample format : 44.100 Hz; 16 Bit; Stereo

TOC of the extracted CD

Track | Start | Length | Start sector | End sector
––––––––––––––––––––––––––––-
1 | 0:00.00 | 6:22.43 | 0 | 28692
2 | 6:22.43 | 3:47.62 | 28693 | 45779
3 | 10:10.30 | 3:14.35 | 45780 | 60364
4 | 13:24.65 | 3:14.55 | 60365 | 74969
5 | 16:39.45 | 5:10.48 | 74970 | 98267
6 | 21:50.18 | 2:51.32 | 98268 | 111124
7 | 24:41.50 | 4:53.53 | 111125 | 133152
8 | 29:35.28 | 2:36.72 | 133153 | 144924
9 | 32:12.25 | 4:48.00 | 144925 | 166524
10 | 37:00.25 | 14:39.60 | 166525 | 232509

Track 1

Filename L:TorrentsGillian Welch – Time (The Relevator) (2001) [FLAC]1 – Gillian Welch – Revelator.wav

Pre-gap length 0:00:02.00

Peak level 89.0 %
Track quality 100.0 %
Test CRC 4AC4D4E5
Copy CRC 4AC4D4E5
Accurately ripped (confidence 60) [339773ED]
Copy OK

Track 2

Filename L:TorrentsGillian Welch – Time (The Relevator) (2001) [FLAC]2 – Gillian Welch – My First Lover.wav

Pre-gap length 0:00:01.10

Peak level 91.9 %
Track quality 100.0 %
Test CRC C8647625
Copy CRC C8647625
Accurately ripped (confidence 61) [297193A7]
Copy OK

Track 3

Filename L:TorrentsGillian Welch – Time (The Relevator) (2001) [FLAC]3 – Gillian Welch – Dear Someone.wav

Pre-gap length 0:00:03.15

Peak level 91.2 %
Track quality 100.0 %
Test CRC A4E34497
Copy CRC A4E34497
Accurately ripped (confidence 61) [6084F805]
Copy OK

Track 4

Filename L:TorrentsGillian Welch – Time (The Relevator) (2001) [FLAC]4 – Gillian Welch – Red Clay Halo.wav

Pre-gap length 0:00:02.57

Peak level 94.8 %
Track quality 100.0 %
Test CRC D4F95CDD
Copy CRC D4F95CDD
Accurately ripped (confidence 61) [686E8487]
Copy OK

Track 5

Filename L:TorrentsGillian Welch – Time (The Relevator) (2001) [FLAC]5 – Gillian Welch – April The 14th Part 1.wav

Peak level 94.3 %
Track quality 100.0 %
Test CRC D1CFB59A
Copy CRC D1CFB59A
Accurately ripped (confidence 61) [DDEDFD31]
Copy OK

Track 6

Filename L:TorrentsGillian Welch – Time (The Relevator) (2001) [FLAC]6 – Gillian Welch – I Want To Sing That Rock And Roll.wav

Pre-gap length 0:00:02.30

Peak level 98.7 %
Track quality 100.0 %
Test CRC 65C253D9
Copy CRC 65C253D9
Accurately ripped (confidence 60) [86CFDC5A]
Copy OK

Track 7

Filename L:TorrentsGillian Welch – Time (The Relevator) (2001) [FLAC]7 – Gillian Welch – Elvis Presley Blues.wav

Pre-gap length 0:00:03.70

Peak level 94.3 %
Track quality 100.0 %
Test CRC 6DF08B8C
Copy CRC 6DF08B8C
Accurately ripped (confidence 61) [BFD61D5C]
Copy OK

Track 8

Filename L:TorrentsGillian Welch – Time (The Relevator) (2001) [FLAC]8 – Gillian Welch – Ruination Day Part 2.wav

Pre-gap length 0:00:01.18

Peak level 96.5 %
Track quality 100.0 %
Test CRC FE6F019C
Copy CRC FE6F019C
Accurately ripped (confidence 60) [8ED29045]
Copy OK

Track 9

Filename L:TorrentsGillian Welch – Time (The Relevator) (2001) [FLAC]9 – Gillian Welch – Everything Is Free.wav

Pre-gap length 0:00:03.12

Peak level 93.2 %
Track quality 100.0 %
Test CRC B9376277
Copy CRC B9376277
Accurately ripped (confidence 60) [4D15CA99]
Copy OK

Track 10

Filename L:TorrentsGillian Welch – Time (The Relevator) (2001) [FLAC]10 – Gillian Welch – I Dream A Highway.wav

Pre-gap length 0:00:03.70

Peak level 66.9 %
Track quality 100.0 %
Test CRC 9DCD63BF
Copy CRC 9DCD63BF
Accurately ripped (confidence 58) [FE9F7805]
Copy OK

All tracks accurately ripped

No errors occurred

End of status report

Thanks to the Original customer.

Gillian Welch – Time (The Revelator) (2001) {Acony} Download, Warez, DDL, Free, Full Album, Torrent, Legal.

Download