Gilberto Gil – To Be Alive Is Good Anos 80 (2002) {Warner Music Brasil 092747427-2 rec 1981-88}

Download
Gilberto Gil - To Be Alive Is Good Anos 80 (2002) {Warner Music Brasil 092747427-2 rec 1981-88}

Gilberto Gil – To Be Alive Is Good Anos 80 (2002) {Warner Music Brasil 092747427-2 rec 1981-88}
EAC rip (secure mode) | FLAC (tracks)+CUE+LOG -> 482 Mb | MP3 @320 -> 172 Mb
Full Artwork @ 300 dpi (jpg) -> 29 Mb | 5% repair rar
© 1981-1988, 2002 Warner Music Brasil | 092747427-2
Jazz / Brazilian Jazz / Brazilian Folk / Música popular brasileira / Brazilian Traditions / Brazilian Pop

A leader of the Tropicalia movement in Brazil in 1967 and 1968, along with artists like Caetano Veloso and Gal Costa, Gilberto Gil and other musicians mixed native styles with rock and folk instruments. Because Gil fused samba, salsa, and bossa nova with rock and folk music, he’s recognized today as one of the pioneers in world music. A multi-instrumentalist and singer/songwriter, Gil joined his first group, the Desafinados, in the mid-’50s and by the beginning of the ’60s was earning a living as a jingle composer. Although known mostly as a guitarist, he also holds his own with drums, trumpet, and accordion.

Gilberto Gil - To Be Alive Is Good Anos 80 (2002) {Warner Music Brasil 092747427-2 rec 1981-88}

tracklist:
01 – It’s Good To Be Alive
02 – Titicaca
03 – Afoxe Badaue
04 – Coracoes A Mil
05 – TV Punk
06 – Oxala
07 – Pilula De Alho
08 – Estrela
09 – Quatro Modos
10 – Musica Moderna
11 – Serafim
12 – Noite De Lua Cheia
13 – Todo Dia De Manha
14 – Punk Da Periferia
15 – Por Que Alguem Tem Inveja De Voce
16 – Sitio Do Pica Pau Amarelo
17 – Pode Waldir

EAC log
Exact Audio Copy V1.1 from 23. June 2015

EAC extraction logfile from 1. January 2017, 12:45

Gilberto Gil / To Be Alive Is Good Anos 80

Used drive : MATSHITADVD+-RW SW830 Adapter: 1 ID: 0

Read mode : Secure
Utilize accurate stream : Yes
Defeat audio cache : Yes
Make use of C2 pointers : No

Read offset correction : 6
Overread into Lead-In and Lead-Out : No
Fill up missing offset samples with silence : Yes
Delete leading and trailing silent blocks : No
Null samples used in CRC calculations : Yes
Used interface : Native Win32 interface for Win NT & 2000
Gap handling : Appended to previous track

Used output format : User Defined Encoder
Selected bitrate : 896 kBit/s
Quality : High
Add ID3 tag : No
Command line compressor : C:Program Files (x86)Exact Audio CopyFlacflac.exe
Additional command line options : -8 -V -T "ARTIST=%artist%" -T "TITLE=%title%" -T "ALBUM=%albumtitle%" -T "DATE=%year%" -T "TRACKNUMBER=%tracknr%" -T "TOTALTRACKS=%numtracks%" -T "GENRE=%genre%" -T "ALBUMARTIST=%albumartist%" -T "ALBUM ARTIST=%albumartist%" -T "COMMENT=EAC Secure Mode, Test & Copy, AccurateRip, FLAC -8" %source%

TOC of the extracted CD

Track | Start | Length | Start sector | End sector
––––––––––––––––––––––––––––-
1 | 0:00.00 | 4:16.47 | 0 | 19246
2 | 4:16.47 | 3:32.28 | 19247 | 35174
3 | 7:49.00 | 4:38.50 | 35175 | 56074
4 | 12:27.50 | 3:17.22 | 56075 | 70871
5 | 15:44.72 | 5:05.38 | 70872 | 93784
6 | 20:50.35 | 4:58.57 | 93785 | 116191
7 | 25:49.17 | 4:05.70 | 116192 | 134636
8 | 29:55.12 | 4:03.03 | 134637 | 152864
9 | 33:58.15 | 3:23.45 | 152865 | 168134
10 | 37:21.60 | 5:25.05 | 168135 | 192514
11 | 42:46.65 | 3:27.55 | 192515 | 208094
12 | 46:14.45 | 3:35.00 | 208095 | 224219
13 | 49:49.45 | 4:41.72 | 224220 | 245366
14 | 54:31.42 | 4:35.28 | 245367 | 266019
15 | 59:06.70 | 5:12.32 | 266020 | 289451
16 | 64:19.27 | 3:33.28 | 289452 | 305454
17 | 67:52.55 | 5:44.35 | 305455 | 331289

Track 1

Filename G:New RipsGilberto Gil – To Be Alive Is Good Anos 80 (2002) [FLAC]1 – It’s Good To Be Alive.wav

Pre-gap length 0:00:02.00

Peak level 98.1 %
Extraction speed 1.6 X
Track quality 99.9 %
Test CRC 9DFD9654
Copy CRC 9DFD9654
Accurately ripped (confidence 2) [F2231DAE] (AR v2)
Copy OK

Track 2

Filename G:New RipsGilberto Gil – To Be Alive Is Good Anos 80 (2002) [FLAC]2 – Titicaca.wav

Peak level 98.1 %
Extraction speed 2.1 X
Track quality 100.0 %
Test CRC 81DA34E1
Copy CRC 81DA34E1
Accurately ripped (confidence 2) [7A5863E2] (AR v2)
Copy OK

Track 3

Filename G:New RipsGilberto Gil – To Be Alive Is Good Anos 80 (2002) [FLAC]3 – Afoxe Badaue.wav

Peak level 98.4 %
Extraction speed 2.4 X
Track quality 100.0 %
Test CRC 4D0A3CBD
Copy CRC 4D0A3CBD
Accurately ripped (confidence 2) [77C7E5B8] (AR v2)
Copy OK

Track 4

Filename G:New RipsGilberto Gil – To Be Alive Is Good Anos 80 (2002) [FLAC]4 – Coracoes A Mil.wav

Pre-gap length 0:00:01.43

Peak level 98.1 %
Extraction speed 2.5 X
Track quality 100.0 %
Test CRC 6A099378
Copy CRC 6A099378
Accurately ripped (confidence 2) [74D57EC1] (AR v2)
Copy OK

Track 5

Filename G:New RipsGilberto Gil – To Be Alive Is Good Anos 80 (2002) [FLAC]5 – TV Punk.wav

Peak level 98.1 %
Extraction speed 2.8 X
Track quality 100.0 %
Test CRC A0106AD2
Copy CRC A0106AD2
Accurately ripped (confidence 2) [23443705] (AR v2)
Copy OK

Track 6

Filename G:New RipsGilberto Gil – To Be Alive Is Good Anos 80 (2002) [FLAC]6 – Oxala.wav

Peak level 98.1 %
Extraction speed 2.9 X
Track quality 100.0 %
Test CRC 655A9A88
Copy CRC 655A9A88
Accurately ripped (confidence 2) [5971AFB3] (AR v2)
Copy OK

Track 7

Filename G:New RipsGilberto Gil – To Be Alive Is Good Anos 80 (2002) [FLAC]7 – Pilula De Alho.wav

Peak level 98.2 %
Extraction speed 3.0 X
Track quality 100.0 %
Test CRC CEBEEB14
Copy CRC CEBEEB14
Accurately ripped (confidence 2) [EDCE67DC] (AR v2)
Copy OK

Track 8

Filename G:New RipsGilberto Gil – To Be Alive Is Good Anos 80 (2002) [FLAC]8 – Estrela.wav

Peak level 98.1 %
Extraction speed 2.4 X
Track quality 99.9 %
Test CRC B88F071C
Copy CRC B88F071C
Accurately ripped (confidence 2) [5B293C3F] (AR v2)
Copy OK

Track 9

Filename G:New RipsGilberto Gil – To Be Alive Is Good Anos 80 (2002) [FLAC]9 – Quatro Modos.wav

Peak level 98.1 %
Extraction speed 3.2 X
Track quality 100.0 %
Test CRC 3503C28F
Copy CRC 3503C28F
Accurately ripped (confidence 2) [054A3BDE] (AR v2)
Copy OK

Track 10

Filename G:New RipsGilberto Gil – To Be Alive Is Good Anos 80 (2002) [FLAC]10 – Musica Moderna.wav

Peak level 98.1 %
Extraction speed 3.5 X
Track quality 100.0 %
Test CRC 2AFACA2D
Copy CRC 2AFACA2D
Accurately ripped (confidence 2) [894445A0] (AR v2)
Copy OK

Track 11

Filename G:New RipsGilberto Gil – To Be Alive Is Good Anos 80 (2002) [FLAC]11 – Serafim.wav

Peak level 98.1 %
Extraction speed 3.4 X
Track quality 100.0 %
Test CRC 5E82296D
Copy CRC 5E82296D
Accurately ripped (confidence 2) [189B6CB9] (AR v2)
Copy OK

Track 12

Filename G:New RipsGilberto Gil – To Be Alive Is Good Anos 80 (2002) [FLAC]12 – Noite De Lua Cheia.wav

Peak level 97.7 %
Extraction speed 3.5 X
Track quality 100.0 %
Test CRC 8EEEBB71
Copy CRC 8EEEBB71
Accurately ripped (confidence 2) [DE60309D] (AR v2)
Copy OK

Track 13

Filename G:New RipsGilberto Gil – To Be Alive Is Good Anos 80 (2002) [FLAC]13 – Todo Dia De Manha.wav

Peak level 97.7 %
Extraction speed 3.8 X
Track quality 100.0 %
Test CRC D4D62D2B
Copy CRC D4D62D2B
Accurately ripped (confidence 2) [4E810775] (AR v2)
Copy OK

Track 14

Filename G:New RipsGilberto Gil – To Be Alive Is Good Anos 80 (2002) [FLAC]14 – Punk Da Periferia.wav

Peak level 96.5 %
Extraction speed 3.9 X
Track quality 100.0 %
Test CRC F72401CB
Copy CRC F72401CB
Accurately ripped (confidence 2) [EE64D96B] (AR v2)
Copy OK

Track 15

Filename G:New RipsGilberto Gil – To Be Alive Is Good Anos 80 (2002) [FLAC]15 – Por Que Alguem Tem Inveja De Voce.wav

Peak level 98.3 %
Extraction speed 3.3 X
Track quality 99.9 %
Test CRC 5628871C
Copy CRC 5628871C
Accurately ripped (confidence 2) [EC4831DC] (AR v2)
Copy OK

Track 16

Filename G:New RipsGilberto Gil – To Be Alive Is Good Anos 80 (2002) [FLAC]16 – Sitio Do Pica Pau Amarelo.wav

Peak level 98.1 %
Extraction speed 3.9 X
Track quality 100.0 %
Test CRC D0A914B4
Copy CRC D0A914B4
Accurately ripped (confidence 2) [0AA1507E] (AR v2)
Copy OK

Track 17

Filename G:New RipsGilberto Gil – To Be Alive Is Good Anos 80 (2002) [FLAC]17 – Pode Waldir.wav

Peak level 98.1 %
Extraction speed 4.3 X
Track quality 100.0 %
Test CRC D5E0EB38
Copy CRC D5E0EB38
Accurately ripped (confidence 2) [03768F0E] (AR v2)
Copy OK

All tracks accurately ripped

No errors occurred

End of status report

–– CUETools DB Plugin V2.1.6

[CTDB TOCID: b8JHsGR49pT2LWjiML6CorR8Pm8-] found
Submit result: already submitted
Track | CTDB Status
1 | (3/3) Accurately ripped
2 | (3/3) Accurately ripped
3 | (3/3) Accurately ripped
4 | (3/3) Accurately ripped
5 | (3/3) Accurately ripped
6 | (3/3) Accurately ripped
7 | (3/3) Accurately ripped
8 | (3/3) Accurately ripped
9 | (3/3) Accurately ripped
10 | (3/3) Accurately ripped
11 | (3/3) Accurately ripped
12 | (3/3) Accurately ripped
13 | (3/3) Accurately ripped
14 | (3/3) Accurately ripped
15 | (3/3) Accurately ripped
16 | (3/3) Accurately ripped
17 | (3/3) Accurately ripped

==== Log checksum AE389CACFE83A65D0EAEA4E88485C330ABB05EE660CA97D75DFF252E6191985D ====

Gilberto Gil - To Be Alive Is Good Anos 80 (2002) {Warner Music Brasil 092747427-2 rec 1981-88}

Gilberto Gil - To Be Alive Is Good Anos 80 (2002) {Warner Music Brasil 092747427-2 rec 1981-88}

see also:
Gilberto Gil – Salvador 1962-1963 (2002) {Warner Music Brasil 092747212-2 rec 1961-1963}
Gilberto Gil – Ao Vivo – Montreux International Jazz Festival (1978) {Warner Music Brasil 092746057-2 rel 2002}
Gilberto Gil – Um Banda Um (1982) {Warner Music Brasil 092746040-2 rel 2002}
Gilberto Gil – Extra (1983) {Warner Music Brasil 092746041-2 rel 2002}
Gilberto Gil – Ao Vivo Em Tóquio (1986) {Warner Music Brasil 092746044-2 rel 2002}

Gilberto Gil – Dia Dorim Noite Neon (1985) {Warner Music Brasil 092746043-2 rel 2002}
Gilberto Gil – Em Concerto (1986) {Warner Music Brasil 092746058-2 rel 2002}
Gilberto Gil – Luar (1981) {Warner Music Brasil 092746039-2 rel 2002}
Gilberto Gil – As Canções de Eu Tu Eles (2000) {Warner Music Brasil 092746051-2 rel 2002}
Gilberto Gil – Fé Na Festa (2010) {EmArcy-Universal 0602527410555}

Gilberto Gil – Quilombo (1984) {Warner Music Brasil 092746053-2 rel 2002}
Gilberto Gil – Um Trem Para As Estrelas (1987) {Warner Music Brasil 092746055-2 rel 2002}
Gilberto Gil – Quanta Gente Veio Ver (1997-98) {2CD Warner Music Brasil 092746050-2 rel 2002}
Gilberto Gil – São João Vivo (2000) {Warner Music Brasil 092746052-2 rel 2002}
Gilberto Gil – Z: 300 Anos De Zumbi (1995) {Warner Music Brasil 092746054-2 rel 2002}

Gilberto Gil – It’s Good To Be Alive Anos 90 (2002) {Warner Music Brasil 092747428-2 rec 1985-97}
Gilberto Gil – Soy Loco Por Ti America (1987) {Warner Music Brasil 092746045-2 rel 2002}
Gilberto Gil – Kaya N’gan Daya (2002) {Warner Music Brasil 092747177-2}

===

Gilberto Gil – To Be Alive Is Good Anos 80 (2002) {Warner Music Brasil 092747427-2 rec 1981-88} Download, Warez, DDL, Free, Full Album, Torrent, Legal.

Download