Gervase de Peyer – Clarinet Recital (2017)

Download
Gervase de Peyer - Clarinet Recital (2017)

Gervase de Peyer – Clarinet Recital
EAC Rip | FLAC (tracks)+cue, log, m3u, artwork | 45:51 min | 227 MB
Label: Eloquence – 482 2851 | Tracks: 11 | Rls.date: 2017
Classical

‘Gervase de Peyer is one of the greatest instrumentalist alive’ announced Fanfare magazine. One of the foremost clarinettists of the 20th century, London-born Gervase de Peyer was chosen soloist for a host of conductors and made many award-winning recordings for Decca, L’Oiseau-Lyre and EMI among others. His Concerto recordings have won the Grand Prix du Disque, Charles Gros and the Plaque of Honour of the Academy of Arts and Sciences of America. His solo performances in recitals and in Chamber Music have been awarded many honours and remain highly recommended. In 1950 he was a founding member of the Melos Ensemble of London. This recital of works for clarinet and piano of mostly 20th-century repertoire, but including Weber’s virtuosic Grand Duo Concertant from 1816, was highly regarded when first issued, and receives its first release on CD. ‘The brilliance and attack of both players to the Weber is such that you woud hardly think two such athletic performers could quickly assume a poetic disguise. But, stressing the hundred-year gulf, they do so, and it serves to illuminate some music of very great charm … The recording offers an excellent balance between the two instruments; a slight shift away from the traditional stress on the clarinet in this particular combination is all to the good as far as the blend, a difficult one, is concerned.’ Gramophone, March 1961 ‘His phrasing is like that of a human singer, but with a power, agility and range beyond any singer’s capability; technique that treats the music as though it were happening spontaneously for the first time; an acute awareness of overall form and a tone like a voice coming down from Heaven – voices, actually, because the clarinet has more than one.’ The Washington Post

TRACKLIST

Grand Duo Concertant, Op. 48
1 1. Allegro con fuoco 00:05:09
2 2. Andante con moto 00:05:08
3 3. Rondo:Allegro 00:05:42

4 Andantino, for clarinet & piano 00:03:23

5 Petite Pièce for Clarinet and Piano 00:01:10

Two Majorcan Pieces, for clarinet & piano
6 Paguera 00:02:28
7 Valdemosa 00:01:13

8 Le tombeau de Ravel (Valses Caprices) 00:11:42

Sonatina for clarinet & piano, H. 356
9 1. Moderato 00:05:31
10 2. Andante 00:02:15
11 3. Poco allegro 00:02:17

EAC Log
Exact Audio Copy V1.3 from 2. September 2016

EAC extraction logfile from 16. July 2017, 20:06

Gervase de Peyer / Clarinet Recital

Used drive : ATAPI iHBS112 2 Adapter: 1 ID: 1

Read mode : Secure
Utilize accurate stream : Yes
Defeat audio cache : Yes
Make use of C2 pointers : No

Read offset correction : 6
Overread into Lead-In and Lead-Out : No
Fill up missing offset samples with silence : Yes
Delete leading and trailing silent blocks : No
Null samples used in CRC calculations : Yes
Used interface : Native Win32 interface for Win NT & 2000
Gap handling : Appended to previous track

Used output format : User Defined Encoder
Selected bitrate : 128 kBit/s
Quality : High
Add ID3 tag : No
Command line compressor : C:Program Files (x86)Exact Audio CopyFlacflac.exe
Additional command line options : -8 -V -T "ARTIST=%artist%" -T "TITLE=%title%" -T "ALBUM=%albumtitle%" -T "DATE=%year%" -T "TRACKNUMBER=%tracknr%" -T "GENRE=%genre%" -T "PERFORMER=%albuminterpret%" -T "COMPOSER=%composer%" -T "ALBUMARTIST=%albumartist%" -T "DISCNUMBER=%cdnumber%" -T "TOTALDISCS=%totalcds%" -T "TOTALTRACKS=%numtracks%" -T "COMMENT=EAC Secure Mode, Test & Copy, AccurateRip, FLAC -8" %source% -o %dest%

TOC of the extracted CD

Track | Start | Length | Start sector | End sector
––––––––––––––––––––––––––––-
1 | 0:00.00 | 5:08.66 | 0 | 23165
2 | 5:08.66 | 5:07.48 | 23166 | 46238
3 | 10:16.39 | 5:42.16 | 46239 | 71904
4 | 15:58.55 | 3:22.55 | 71905 | 87109
5 | 19:21.35 | 1:09.65 | 87110 | 92349
6 | 20:31.25 | 2:27.55 | 92350 | 103429
7 | 22:59.05 | 1:12.69 | 103430 | 108898
8 | 24:11.74 | 11:42.00 | 108899 | 161548
9 | 35:53.74 | 5:30.72 | 161549 | 186370
10 | 41:24.71 | 2:15.00 | 186371 | 196495
11 | 43:39.71 | 2:17.04 | 196496 | 206774

Track 1

Filename J:DLGervase de Peyer – Clarinet Recital (2017) [FLAC]1 – Grand Duo Concertant – I. Allegro cob fuoco.wav

Pre-gap length 0:00:02.00

Peak level 98.8 %
Extraction speed 1.1 X
Track quality 100.0 %
Test CRC EBADFF03
Copy CRC EBADFF03
Track not present in AccurateRip database
Copy OK

Track 2

Filename J:DLGervase de Peyer – Clarinet Recital (2017) [FLAC]2 – Grand Duo Concertant – II. Andante con moto.wav

Pre-gap length 0:00:02.32

Peak level 97.6 %
Extraction speed 1.3 X
Track quality 100.0 %
Test CRC 46ABC14D
Copy CRC 46ABC14D
Track not present in AccurateRip database
Copy OK

Track 3

Filename J:DLGervase de Peyer – Clarinet Recital (2017) [FLAC]3 – Grand Duo Concertant – III. Rondo- Allegro.wav

Pre-gap length 0:00:01.72

Peak level 97.5 %
Extraction speed 1.4 X
Track quality 100.0 %
Test CRC CAB6F8F6
Copy CRC CAB6F8F6
Track not present in AccurateRip database
Copy OK

Track 4

Filename J:DLGervase de Peyer – Clarinet Recital (2017) [FLAC]4 – Andantino for Clarinet and Piano.wav

Pre-gap length 0:00:08.30

Peak level 50.0 %
Extraction speed 1.4 X
Track quality 100.0 %
Test CRC B57DDF70
Copy CRC B57DDF70
Track not present in AccurateRip database
Copy OK

Track 5

Filename J:DLGervase de Peyer – Clarinet Recital (2017) [FLAC]5 – Petite Piece for Clarinet and Piano.wav

Pre-gap length 0:00:06.15

Peak level 31.3 %
Extraction speed 1.1 X
Track quality 100.0 %
Test CRC 9A94B9B3
Copy CRC 9A94B9B3
Track not present in AccurateRip database
Copy OK

Track 6

Filename J:DLGervase de Peyer – Clarinet Recital (2017) [FLAC]6 – Grand Duo Concertant – I. Paguera.wav

Pre-gap length 0:00:06.12

Peak level 72.6 %
Extraction speed 1.3 X
Track quality 99.9 %
Test CRC 97E3A9DF
Copy CRC 97E3A9DF
Track not present in AccurateRip database
Copy OK

Track 7

Filename J:DLGervase de Peyer – Clarinet Recital (2017) [FLAC]7 – Grand Duo Concertant – II. Valdemosa.wav

Pre-gap length 0:00:03.17

Peak level 72.5 %
Extraction speed 1.2 X
Track quality 100.0 %
Test CRC 952755D7
Copy CRC 952755D7
Track not present in AccurateRip database
Copy OK

Track 8

Filename J:DLGervase de Peyer – Clarinet Recital (2017) [FLAC]8 – Le tombeau de Ravel (Valses Caprices).wav

Pre-gap length 0:00:07.46

Peak level 77.1 %
Extraction speed 1.9 X
Track quality 100.0 %
Test CRC D9C744E5
Copy CRC D9C744E5
Track not present in AccurateRip database
Copy OK

Track 9

Filename J:DLGervase de Peyer – Clarinet Recital (2017) [FLAC]9 – Sonatina for Clarinet and Piano, H.356 – I. Moderato.wav

Pre-gap length 0:00:07.23

Peak level 96.3 %
Extraction speed 2.0 X
Track quality 100.0 %
Test CRC 0F8AD620
Copy CRC 0F8AD620
Track not present in AccurateRip database
Copy OK

Track 10

Filename J:DLGervase de Peyer – Clarinet Recital (2017) [FLAC]10 – Sonatina for Clarinet and Piano, H.356 – II. Andante.wav

Pre-gap length 0:00:02.54

Peak level 65.0 %
Extraction speed 1.8 X
Track quality 100.0 %
Test CRC F198A700
Copy CRC F198A700
Track not present in AccurateRip database
Copy OK

Track 11

Filename J:DLGervase de Peyer – Clarinet Recital (2017) [FLAC]11 – Sonatina for Clarinet and Piano, H.356 – III. Poco allegro.wav

Peak level 98.8 %
Extraction speed 1.8 X
Track quality 100.0 %
Test CRC 3DA070DD
Copy CRC 3DA070DD
Track not present in AccurateRip database
Copy OK

None of the tracks are present in the AccurateRip database

No errors occurred

End of status report

–– CUETools DB Plugin V2.1.6

[CTDB TOCID: UmzR7tUII9bJby2D4hmtHZgp5J8-] found
Submit result: UmzR7tUII9bJby2D4hmtHZgp5J8- has been confirmed
Track | CTDB Status
1 | (1/1) Accurately ripped
2 | (1/1) Accurately ripped
3 | (1/1) Accurately ripped
4 | (1/1) Accurately ripped
5 | (1/1) Accurately ripped
6 | (1/1) Accurately ripped
7 | (1/1) Accurately ripped
8 | (1/1) Accurately ripped
9 | (1/1) Accurately ripped
10 | (1/1) Accurately ripped
11 | (1/1) Accurately ripped

==== Log checksum 55DE39C80A23F524E4BFE306A3A1491E7D94062A66EC7C9642642E02E7B6C8A1 ====

Gervase de Peyer - Clarinet Recital (2017)
Thanks to the Original customer.

Gervase de Peyer – Clarinet Recital (2017) Download, Warez, DDL, Free, Full Album, Torrent, Legal.

Download