George Thorogood & the Destroyers – Stagecoach – California's Country Music Festival (2015) [HDTV 1080i]

Download
George Thorogood & the Destroyers - Stagecoach - California's Country Music Festival (2015) [HDTV 1080i]

George Thorogood & the Destroyers – Stagecoach – California’s Country Music Festival (2015)
TS: MPEG2, 1920×1080, 29.97fps, 14.1 Mbps | Dolby AC3, 6 ch, 448 kbps
Blues rock, Boogie rock, Blues | 01:11:47 | ~ 8.23 Gb

~ George Thorogood & the Destroyers Live at Empire Polo Grounds, Indio, CA, USA on April 26, 2015 ~

A blues-rock guitarist who draws his inspiration from Elmore James, Hound Dog Taylor, and Chuck Berry, George Thorogood never earned much respect from blues purists, but he became a popular favorite in the early ’80s through repeated exposure on FM radio and the arena rock circuit. Thorogood’s music was always loud, simple, and direct – his riffs and licks were taken straight out of ’50s Chicago blues and rock & roll – but his formulaic approach helped him gain a rather large audience in the ’80s, when his albums regularly went gold.

Originally, Thorogood was a minor-league baseball player but decided to become a musician in 1970 after seeing John Paul Hammond in concert. Three years later, he assembled the Destroyers in his home state of Delaware; in addition to Thorogood, the band featured bassist Michael Lenn, second guitarist Ron Smith, and drummer Jeff Simon. Shortly after the Destroyers were formed, he moved them to Boston, where they became regulars on the blues club circuit. In 1974, they cut a batch of demos that were later released in 1979 as the Better Than the Rest album.

Within a year of recording the demos, the Destroyers were discovered by John Forward, who helped them secure a contract with Rounder Records. Before they made their first album, Lenn was replaced by Billy Blough. Thorogood & the Destroyers’ eponymous debut was released in early 1977. The group’s second album, Move It on Over, was released in 1978. The title track, a cover of Hank Williams’ classic, was pulled as a single and received heavy FM airplay, helping the album enter the American Top 40 and go gold. Its success led to MCA’s release of Better Than the Rest, which the band disdained. In 1980, Ron Smith left the band and the group added a saxophonist, Hank Carter, and released their third album, More George Thorogood and the Destroyers.

Following that release, the guitarist signed with EMI Records, releasing his major-label debut, Bad to the Bone, in 1982. The title track of the album became his first major crossover hit, thanks to MTV’s saturation airplay of the song’s video. The album went gold and spent nearly a full year on the charts. Thorogood’s next three albums after Bad to the Bone all went gold. Before 1985’s Maverick, the Destroyers added a second guitarist, Steve Chrismar.

By the beginning of the ’90s, Thorogood’s audience began to decrease. None of the albums he released went gold, even though the title track from 1993’s Haircut was a number two album rock hit. Despite his declining record sales, Thorogood continued to tour blues and rock clubs and he usually drew large crowds; subsequent efforts included 1997’s Rockin’ My Life Away, 1999’s Half a Boy/Half a Man, Live in ’99, 2003’s Ride ’til I Die, and 2006’s The Hard Stuff. Thorogood returned to EMI/Capitol in 2009, releasing the bar band covers album The Dirty Dozen. Two years later, he continued his covers journey with 2120 South Michigan Ave., a tribute to Chess Records. In the summer of 2017, Thorogood returned to the Rounder label to release his first-ever solo album, Party of One, which was released in August of that year.

by Stephen Thomas Erlewine, allmusic

George Thorogood & the Destroyers – Stagecoach – California’s Country Music Festival (2015):

Tracklist:

01. Rock Party
02. Who Do You Love? (Bo Diddley cover)
03. Help Me
04. Night Time (The Strangeloves cover)
05. I Drink Alone
06. One Bourbon One Scotch One Beer (John Lee Hooker cover)
07. Get A Haircut
08. Gear Jammer
09. Move It On Over (Hank Williams cover)
10. Tail Dragger (Howlin’ Wolf cover)
11. Bad To The Bone

MediaInfo
Общее
ID : 1 (0x1)
Complete name : W:UPMixGeorge Thorogood & the Destroyers – StagecoachGeorge Thorogood & the Destroyers – Stagecoach – California’s Country Music Festival 2015.ts
Format : MPEG-TS
File size : 7,66 Гбайт
Duration : 1 ч. 11 м.
Overall bit rate mode : Переменный
Overall bit rate : 15,3 Мбит/сек

Видео
ID : 6081 (0x17C1)
Menu ID : 1 (0x1)
Format : MPEG Video
Format version : Version 2
Format profile : Main@High
Format settings, BVOP : Да
Format settings, Matrix : Выборочная
Format settings, GOP : Variable
Codec ID : 2
Duration : 1 ч. 11 м.
Bit rate mode : Переменный
Bit rate : 14,1 Мбит/сек
Maximum bit rate : 18,0 Мбит/сек
Width : 1920 пикселей
Height : 1080 пикселей
Display aspect ratio : 16:9
Frame rate : 29,970 кадров/сек
Color space : YUV
Chroma subsampling : 4:2:0
Bit depth : 8 бит
Scan type : Чересстрочная
Scan order : Верхнее поле первое
Compression mode : С потерями
Bits/(Pixel*Frame) : 0.227
Time code of first frame : 00:00:00;00
Time code source : Group of pictures header
Stream size : 7,08 Гбайт (93%)

Аудио
ID : 6082 (0x17C2)
Menu ID : 1 (0x1)
Format : AC-3
Format/Info : Audio Coding 3
Mode extension : CM (complete main)
Format settings, Endianness : Big
Codec ID : 129
Duration : 1 ч. 11 м.
Bit rate mode : Постоянный
Bit rate : 384 Кбит/сек
Channel(s) : 6 каналов
Channel positions : Front: L C R, Side: L R, LFE
Sampling rate : 48,0 КГц
Bit depth : 16 бит
Compression mode : С потерями
Delay relative to video : 9 мс.
Stream size : 197 Мбайт (3%)
Language : English

Текст #1
ID : 6081 (0x17C1)-CC1
Menu ID : 1 (0x1)
Format : EIA-608
Muxing mode : A/53 / DTVCC Transport
Muxing mode, more info : Muxed in Video #1
Duration : 1 ч. 11 м.
Bit rate mode : Постоянный
Stream size : 0,00 байт (0%)

Текст #2
ID : 6081 (0x17C1)-1
Menu ID : 1 (0x1)
Format : EIA-708
Muxing mode : A/53 / DTVCC Transport
Muxing mode, more info : Muxed in Video #1
Duration : 1 ч. 11 м.
Bit rate mode : Постоянный
Stream size : 0,00 байт (0%)

George Thorogood & the Destroyers - Stagecoach - California's Country Music Festival (2015) [HDTV 1080i]

George Thorogood & the Destroyers - Stagecoach - California's Country Music Festival (2015) [HDTV 1080i]

George Thorogood & the Destroyers - Stagecoach - California's Country Music Festival (2015) [HDTV 1080i]

George Thorogood & the Destroyers - Stagecoach - California's Country Music Festival (2015) [HDTV 1080i]

George Thorogood & the Destroyers - Stagecoach - California's Country Music Festival (2015) [HDTV 1080i]

All thanks go to meloman67

George Thorogood or George Thorogood in my Blog

Download George Thorogood & the Destroyers – Stagecoach – California’s Country Music Festival (2015):

George Thorogood & the Destroyers – Stagecoach – California's Country Music Festival (2015) [HDTV 1080i] Download, Warez, DDL, Free, Full Album, Torrent, Legal.

Download