Gentle Giant – Three Piece Suite (2017)

Download
Gentle Giant - Three Piece Suite (2017)

Gentle Giant – Three Piece Suite (2017)
EAC | Flac(Image) + Cue + Log & MP3 CBR 320Kbps
Alucard, ALUGG057 | ~ 412 or 162 Mb | Scans(png) -> 192 Mb
Progressive Rock

Blu-ray plus bonus CD. Following the highly successful releases of the Steven Wilson’s remixes of The Power And The Glory and Octopus, Steven has now remixed a specially curated selection of songs and compositions from the band’s first three albums (Giant, Acquiring the Taste, Three Friends) presented in both 5.1 surround sound and stereo. Only a few songs from each of the band’s first three albums are known to exist as multi-tracks, with the rest presumably lost, and it is these nine tracks – plus the previously unreleased pre-debut song ‘Freedom’s Child’ – that have been remixed by Steven Wilson for this very special release. ‘Three Piece Suite’ includes the songs ‘Giant’, ‘Nothing At All’ and ‘Why Not’ from the first album Giant, ‘Pantagruel’s Nativity’, ‘The House, The Street, The Room’ from the second album Acquiring The Taste, and ‘Schooldays’, ‘Peel the Paint’, ‘Mr. Class And Quality’ and ‘Three Friends’ from the album Three Friends. The previously commercially unreleased song ‘Freedom’s Child’ is from the first recording sessions with legendary producer Tony Visconti. The liner notes contain an essay by noted journalist Anil Prasad, in which Gentle Giant’s members reflect upon the writing and recording sessions. Furthermore, Steven Wilson and Tony Visconti share their observations about the early days of this unique collection of timeless music from one of progressive rock’s most influential bands.

~ amazon

Gentle Giant - Three Piece Suite (2017)

Gentle Giant – Three Piece Suite (2017):

Gentle Giant - Three Piece Suite (2017)

Tracklist CD:

Giant (from "Gentle Giant", 1970)
Nothing At All (from "Gentle Giant", 1970)
Why Not? (from "Gentle Giant", 1970)
Pantagruel’s Nativity (from "Acquiring The Taste", 1971)
The House, The Street, The Room (from "Acquiring The Taste", 1971)
Schooldays (from "Three Friends", 1972)
Peel The Paint (from "Three Friends", 1972)
Mister Class And Quality? (from "Three Friends", 1972)
Three Friends (from "Three Friends", 1972)
Freedom’s Child (pre-recording contract demo recorded at Philips Studio, Marble Arch)

EAC Log
Exact Audio Copy V1.2 from 12. August 2016

EAC extraction logfile from 6. October 2017, 21:50

Gentle Giant / Three Piece Suite

Used drive : PIONEER DVD-RW DVR-220RS Adapter: 1 ID: 1

Read mode : Secure
Utilize accurate stream : Yes
Defeat audio cache : Yes
Make use of C2 pointers : No

Read offset correction : 6
Overread into Lead-In and Lead-Out : No
Fill up missing offset samples with silence : Yes
Delete leading and trailing silent blocks : No
Null samples used in CRC calculations : Yes
Used interface : Native Win32 interface for Win NT & 2000

Used output format : User Defined Encoder
Selected bitrate : 768 kBit/s
Quality : High
Add ID3 tag : No
Command line compressor : C:Program Files (x86)Exact Audio CopyWavpackwavpack.exe
Additional command line options : -hm %source% %dest%

TOC of the extracted CD

Track | Start | Length | Start sector | End sector
––––––––––––––––––––––––––––-
1 | 0:00.00 | 6:26.48 | 0 | 28997
2 | 6:26.48 | 9:06.53 | 28998 | 70000
3 | 15:33.26 | 5:32.19 | 70001 | 94919
4 | 21:05.45 | 6:57.34 | 94920 | 126228
5 | 28:03.04 | 6:08.15 | 126229 | 153843
6 | 34:11.19 | 7:41.60 | 153844 | 188478
7 | 41:53.04 | 7:36.15 | 188479 | 222693
8 | 49:29.19 | 5:51.46 | 222694 | 249064
9 | 55:20.65 | 2:56.16 | 249065 | 262280
10 | 58:17.06 | 3:58.02 | 262281 | 280132
11 | 62:15.08 | 4:54.07 | 280133 | 302189

Range status and errors

Selected range

Filename C:_NL+__CDGentle Giant – Three Piece Suite.wav

Peak level 100.0 %
Extraction speed 8.4 X
Range quality 100.0 %
Test CRC B6F70FA0
Copy CRC B6F70FA0
Copy OK

No errors occurred

AccurateRip summary

Track 1 not present in database
Track 2 not present in database
Track 3 not present in database
Track 4 not present in database
Track 5 not present in database
Track 6 not present in database
Track 7 not present in database
Track 8 not present in database
Track 9 not present in database
Track 10 not present in database
Track 11 not present in database

None of the tracks are present in the AccurateRip database

End of status report

–– CUETools DB Plugin V2.1.6

[CTDB TOCID: IOskIasM_gQki4yf8toj_qaikKM-] found
Submit result: IOskIasM_gQki4yf8toj_qaikKM- has been confirmed
Track | CTDB Status
1 | (12/13) Accurately ripped
2 | (13/13) Accurately ripped
3 | (13/13) Accurately ripped
4 | (13/13) Accurately ripped
5 | (13/13) Accurately ripped
6 | (13/13) Accurately ripped
7 | (13/13) Accurately ripped
8 | (13/13) Accurately ripped
9 | (13/13) Accurately ripped
10 | (13/13) Accurately ripped
11 | (13/13) Accurately ripped

==== Log checksum 34CBF6CF97F1039C890E1ECE2DDCCD8F39A59AD5DECB35EC7D5F3395A7ABC773 ====

CUETools Log
[CUETools log; Date: 10.10.2017 6:21:15; Version: 2.1.5]
[AccurateRip ID: 001e31d2-01017db4-ab0fbd0b] disk not present in database.

Track Peak [ CRC32 ] [W/O NULL] [ LOG ]
– 100,0 [B6F70FA0] [FC8CEB84] CRC32
01 99,9 [89093A86] [07B1CD46]
02 97,6 [1B8DF1CA] [B76F80E6]
03 99,9 [557ED43B] [F3FE83AA]
04 100,0 [77CCD300] [B8956FF0]
05 100,0 [B2E39164] [5D72BF7E]
06 99,0 [CD27E01E] [B3062622]
07 99,9 [25282B4A] [B4C5F3FB]
08 99,9 [4F7A5ED0] [09498C53]
09 100,0 [36DE0297] [9A5D404E]
10 99,5 [A3C6CB3B] [9EEB68EC]
11 97,5 [C7D22C08] [31ED5D51]

Gentle Giant - Three Piece Suite (2017)

Tracklist Blu-ray:

The Steven Wilson Remixes:

Giant (from "Gentle Giant", 1970)
Nothing At All (from "Gentle Giant", 1970)
Why Not? (from "Gentle Giant", 1970)
Pantagruel’s Nativity (from "Acquiring The Taste", 1971)
The House, The Street, The Room (from "Acquiring The Taste", 1971)
Schooldays (from "Three Friends", 1972)
Peel The Paint (from "Three Friends", 1972)
Mister Class And Quality? (from "Three Friends", 1972)
Three Friends (from "Three Friends", 1972)
Freedom’s Child (pre-recording contract demo recorded at Philips Studio, Marble Arch)

Instrumentals (96/24 stereo LPCM):

Giant
Nothing At All
Why Not?
Pantagruel’s Nativity
The House, The Street, The Room
Schooldays
Peel The Paint
Mister Class and Quality?
Three Friends
Freedom’s Child

Original Album Mixes (Transferred Flat – 96/24 Stereo LPCM):

Gentle Giant
Giant
Funny Ways
Alucard
Isn’t It Quiet And Cold?
Nothing At All
Why Not?
The Queen

Acquiring The Taste:

Pantagruel’s Nativity
Edge Of Twilight
The House, The Street, The Room
Acquiring The Taste
Wreck
The Moon Is Down
Black Cat
Plain Truth

Three Friends:

Prologue
Schooldays
Working All Day
Peel The Paint
Mister Class And Quality?
Three Friends

BDInfo

Gentle Giant - Three Piece Suite (2017)

All thanks go to tatuk

Gentle Giant or Gentle Giant in my Blog

Download Gentle Giant – Three Piece Suite (2017):

Gentle Giant – Three Piece Suite (2017) Download, Warez, DDL, Free, Full Album, Torrent, Legal.

Download