Gene Ludwig & Pat Martino Trio – Young Guns (1968-1969) {HighNote HCD 7258 rel 2014}

Download
Gene Ludwig & Pat Martino Trio - Young Guns (1968-1969) {HighNote HCD 7258 rel 2014}

Gene Ludwig & Pat Martino Trio – Young Guns (1968-1969) {HighNote HCD 7258 rel 2014}
EAC rip (secure mode) | FLAC (tracks)+CUE+LOG -> 385 Mb | MP3 @320 -> 184 Mb
Full Artwork @ 600 dpi (jpg) -> 98 Mb | 5% repair rar
© 1968-69, 2014 HighNote Records | HCD 7258
Jazz / Post Bop / Soul Jazz / Hammond B-3 organ / Guitar

The name Young Guns seems ironically amiss until one learns that this recording dates from 1968-69 when organist Gene Ludwig was thirty years old, guitarist Pat Martino twenty-three and drummer Randy Gelispie somewhere in that neighborhood, long before he became fondly known as "Uncle G." The organ trio was in its heyday then, and this one was caught on tape during an exciting live date at Club 118 in Louisville, KY. How many other such performances have been lost forever owing to the absence of a tape recorder or the failure to turn it on is anyone’s guess. But this one, thank goodness, has been preserved for present-day ears to appreciate.

Ludwig, an admirer of Jimmy Smith and forerunner of Joey DeFrancesco and other Hammond masters, sprays bluesy notes and ideas all over the landscape, while Martino, a lyrical machine, has the proper phrase for every occasion, whether rushing quickly forward or simply hanging loose. Gelispie, a splendid soloist when his number is called, serves as the trio’s rhythmic anchor, deftly shaping the time as Ludwig and Martino zigzag around and through it. To put it another way, all three are at the top of their respective games.

This is clear from the outset, a fast-moving rendition of Leslie Bricusse / Anthony Newley’s "Who Can I Turn To?" Everyone is smoking on that one, and even more so on the usually even-tempered standard "Close Your Eyes," wherein the accelerator is pressed to the floor and the trio burns some serious rubber. The pace slackens to a degree on Wes Montgomery’s groovy "Road Song," then resumes apace on Martino’s animated finale, "Colossus." Leading the threesome there are John Coltrane’s engaging "Mr. PC," Milt Jackson’s funky "Sam Sack" and Michel Legrand’s "Watch What Happens," a gentle samba that is as close to a ballad as anything the crew undertakes.

Even more than forty years onward, the themes sound fresh and charming, thanks to the commingled talents of Messrs Ludwig, Martino and Gelispie who underscore the premise that good music is always in style. Even though the Young Guns no longer answer to that name, they leave no doubt in this colorful scrapbook why it was once very much their province.

Personnel:
Pat Martino: guitar
Gene Ludwig: Hammond B-3 organ
Randy Gelispie: drums

tracklist:
01 – Who Can I Turn To?
02 – Mr. PC
03 – Sam Sack
04 – Watch What Happens
05 – Close Your Eyes
06 – Road Song
07 – Colossus

EAC log
Exact Audio Copy V1.1 from 23. June 2015

EAC extraction logfile from 19. July 2017, 13:40

Gene Ludwig – Pat Martino Trio / Young Guns

Used drive : TSSTcorpCDDVDW SE-208DB Adapter: 1 ID: 1

Read mode : Secure
Utilize accurate stream : Yes
Defeat audio cache : Yes
Make use of C2 pointers : No

Read offset correction : 6
Overread into Lead-In and Lead-Out : No
Fill up missing offset samples with silence : Yes
Delete leading and trailing silent blocks : No
Null samples used in CRC calculations : Yes
Used interface : Native Win32 interface for Win NT & 2000
Gap handling : Appended to previous track

Used output format : User Defined Encoder
Selected bitrate : 1024 kBit/s
Quality : High
Add ID3 tag : No
Command line compressor : C:Program Files (x86)FLAC Frontendtoolsflac.exe
Additional command line options : -8 -V -T "ARTIST=%artist%" -T "TITLE=%title%" -T "ALBUM=%albumtitle%" -T "DATE=%year%" -T "TRACKNUMBER=%tracknr%" -T "TOTALTRACKS=%numtracks%" -T "GENRE=%genre%" -T "ALBUMARTIST=%albumartist%" -T "ALBUM ARTIST=%albumartist%" -T "COMMENT=EAC Secure Mode, Test & Copy, AccurateRip, FLAC -8" %source%

TOC of the extracted CD

Track | Start | Length | Start sector | End sector
––––––––––––––––––––––––––––-
1 | 0:00.00 | 13:40.41 | 0 | 61540
2 | 13:40.41 | 8:18.46 | 61541 | 98936
3 | 21:59.12 | 12:58.08 | 98937 | 157294
4 | 34:57.20 | 9:27.37 | 157295 | 199856
5 | 44:24.57 | 12:26.03 | 199857 | 255809
6 | 56:50.60 | 8:00.69 | 255810 | 291878
7 | 64:51.54 | 12:02.02 | 291879 | 346030

Track 1

Filename D:_EACGene Ludwig & Pat Martino Trio – Young Guns (2014) [FLAC] {HighNote HCD 7258 rec 1968-69}1 – Who Can I Turn To_.wav

Pre-gap length 0:00:02.00

Peak level 98.3 %
Extraction speed 1.3 X
Track quality 100.0 %
Test CRC 64D9EFDD
Copy CRC 64D9EFDD
Accurately ripped (confidence 3) [781CB4F7] (AR v2)
Copy OK

Track 2

Filename D:_EACGene Ludwig & Pat Martino Trio – Young Guns (2014) [FLAC] {HighNote HCD 7258 rec 1968-69}2 – Mr. PC.wav

Peak level 98.7 %
Extraction speed 1.4 X
Track quality 99.9 %
Test CRC 001DC521
Copy CRC 001DC521
Accurately ripped (confidence 3) [71EFA86A] (AR v2)
Copy OK

Track 3

Filename D:_EACGene Ludwig & Pat Martino Trio – Young Guns (2014) [FLAC] {HighNote HCD 7258 rec 1968-69}3 – Sam Sack.wav

Peak level 99.0 %
Extraction speed 1.7 X
Track quality 100.0 %
Test CRC 37676437
Copy CRC 37676437
Accurately ripped (confidence 3) [C0972B34] (AR v2)
Copy OK

Track 4

Filename D:_EACGene Ludwig & Pat Martino Trio – Young Guns (2014) [FLAC] {HighNote HCD 7258 rec 1968-69}4 – Watch What Happens.wav

Peak level 98.2 %
Extraction speed 1.8 X
Track quality 100.0 %
Test CRC B2B8EC31
Copy CRC B2B8EC31
Accurately ripped (confidence 3) [A01B73D4] (AR v2)
Copy OK

Track 5

Filename D:_EACGene Ludwig & Pat Martino Trio – Young Guns (2014) [FLAC] {HighNote HCD 7258 rec 1968-69}5 – Close Your Eyes.wav

Peak level 98.4 %
Extraction speed 2.0 X
Track quality 100.0 %
Test CRC 59CA9AC1
Copy CRC 59CA9AC1
Accurately ripped (confidence 3) [75CED854] (AR v2)
Copy OK

Track 6

Filename D:_EACGene Ludwig & Pat Martino Trio – Young Guns (2014) [FLAC] {HighNote HCD 7258 rec 1968-69}6 – Road Song.wav

Peak level 98.5 %
Extraction speed 2.1 X
Track quality 100.0 %
Test CRC 3F59788C
Copy CRC 3F59788C
Accurately ripped (confidence 3) [B6E5A98A] (AR v2)
Copy OK

Track 7

Filename D:_EACGene Ludwig & Pat Martino Trio – Young Guns (2014) [FLAC] {HighNote HCD 7258 rec 1968-69}7 – Colossus.wav

Peak level 98.3 %
Extraction speed 2.2 X
Track quality 100.0 %
Test CRC 3E9B512C
Copy CRC 3E9B512C
Accurately ripped (confidence 3) [BAE3DFE9] (AR v2)
Copy OK

All tracks accurately ripped

No errors occurred

End of status report

–– CUETools DB Plugin V2.1.6

[CTDB TOCID: ep5i.Itwjy0pG2kI4QOFtoVgTpU-] found
Submit result: ep5i.Itwjy0pG2kI4QOFtoVgTpU- has been confirmed
Track | CTDB Status
1 | (5/5) Accurately ripped
2 | (5/5) Accurately ripped
3 | (5/5) Accurately ripped
4 | (5/5) Accurately ripped
5 | (5/5) Accurately ripped
6 | (5/5) Accurately ripped
7 | (5/5) Accurately ripped

==== Log checksum 3942BF5717E303E1FB985BAA81199D42542BA80F968331FB69E082685AD8E4B2 ====

Gene Ludwig & Pat Martino Trio - Young Guns (1968-1969) {HighNote HCD 7258 rel 2014}

Gene Ludwig & Pat Martino Trio - Young Guns (1968-1969) {HighNote HCD 7258 rel 2014}

special thanks to 0xxa…

===

Gene Ludwig & Pat Martino Trio – Young Guns (1968-1969) {HighNote HCD 7258 rel 2014} Download, Warez, DDL, Free, Full Album, Torrent, Legal.

Download