Garth Brooks – Gunslinger (2016)

Download
Garth Brooks - Gunslinger (2016)

Garth Brooks – Gunslinger (2016)
EAC | FLAC | Image (Cue&Log) ~ 293 Mb (incl 5%) | Mp3 (CBR320) ~ 146 Mb (incl 5%) | Scans included
Genre: Country, Country-Pop | Label: Sony/Pearl | # 88985393602 | Time: 00:35:10

The very title of Garth Brooks’ 2014 comeback Man Against Machine telegraphed how the singer saw himself in the 2010s: he was an outsider, taking on the establishment. Man Against Machine debuted at number one and sold well but it didn’t conquer the charts – none of its singles went further than 19 on Billboard’s Country Airplay charts – and, in light of this, Brooks did something uncharacteristic: he decided to retreat. On Gunslinger – its title consciously evoking the western themes of No Fences and Ropin’ the Wind – Brooks is so unconcerned with hits that he decided that "Baby, Let’s Lay Down and Dance," a slice of country-disco that sounds like a kissing cousin to Orleans’ "Still the One," was a good idea for a lead single. And, in a way, he’s right. Gunslinger has its heart in the past, existing on a plane between Brooks’ arena-country ’90s hits and his ’70s AM influences. The difference is, Brooks is comfortable in his middle age. It’s not just that his maturation gives him an easy touch in performance – although that does help – it’s that he’s no longer obsessed with being the biggest, best star in country music. Modesty is a marked shift for a singer who always seemed partially driven by the desire of shattering records, and he wears it well, digging into the honky tonk numbers, happy to sound goofy on the neon-pumping anthems, and easing into the ballads. All of these sounds are familiar, but his light touch means Gunslinger doesn’t sound like pandering to the past but rather a cheerful acceptance of the present.

Review by Stephen Thomas Erlewine, Allmusic.com

Garth Brooks - Gunslinger (2016)

Garth Brooks at Allmusic
Garth Brooks Website
Garth Brooks at Wiki

Tracklist:

01. Honky-Tonk Somewhere (02:25)
02. Weekend (02:40)
03. Ask Me How I Know (03:31)
04. Baby, Let’s Lay Down and Dance (03:10)
05. He Really Loves You (04:00)
06. Pure Adrenaline (03:49)
07. Whiskey To Wine (04:12)
08. Bang! Bang! (03:12)
09. Cowboys and Friends (03:15)
10. 8Teen (04:50)

EAC log
Exact Audio Copy V1.1 from 23. June 2015

EAC extraction logfile from 26. December 2016, 20:37

Garth Brooks / Gunslinger

Used drive : Optiarc DVD RW AD-7760H Adapter: 1 ID: 0

Read mode : Secure
Utilize accurate stream : Yes
Defeat audio cache : Yes
Make use of C2 pointers : No

Read offset correction : 48
Overread into Lead-In and Lead-Out : No
Fill up missing offset samples with silence : Yes
Delete leading and trailing silent blocks : No
Null samples used in CRC calculations : Yes
Used interface : Native Win32 interface for Win NT & 2000

Used output format : Internal WAV Routines
Sample format : 44.100 Hz; 16 Bit; Stereo

TOC of the extracted CD

Track | Start | Length | Start sector | End sector
––––––––––––––––––––––––––––-
1 | 0:00.00 | 2:25.17 | 0 | 10891
2 | 2:25.17 | 2:40.49 | 10892 | 22940
3 | 5:05.66 | 3:31.73 | 22941 | 38838
4 | 8:37.64 | 3:10.57 | 38839 | 53145
5 | 11:48.46 | 4:00.52 | 53146 | 71197
6 | 15:49.23 | 3:49.21 | 71198 | 88393
7 | 19:38.44 | 4:12.73 | 88394 | 107366
8 | 23:51.42 | 3:12.53 | 107367 | 121819
9 | 27:04.20 | 3:15.33 | 121820 | 136477
10 | 30:19.53 | 4:50.44 | 136478 | 158271

Range status and errors

Selected range

Filename I:Garth Brooks – Gunslinger (2016)Garth Brooks – Gunslinger (2016).wav

Peak level 93.3 %
Extraction speed 4.1 X
Range quality 100.0 %
Test CRC 5E088E75
Copy CRC 5E088E75
Copy OK

No errors occurred

AccurateRip summary

Track 1 accurately ripped (confidence 3) [7CABC324] (AR v2)
Track 2 accurately ripped (confidence 3) [7FD98E76] (AR v2)
Track 3 accurately ripped (confidence 3) [9133BF1A] (AR v2)
Track 4 accurately ripped (confidence 3) [7AB3AB69] (AR v2)
Track 5 accurately ripped (confidence 3) [71D7D4F6] (AR v2)
Track 6 accurately ripped (confidence 3) [4BA41422] (AR v2)
Track 7 accurately ripped (confidence 3) [390D5467] (AR v2)
Track 8 accurately ripped (confidence 3) [99107180] (AR v2)
Track 9 accurately ripped (confidence 3) [04650861] (AR v2)
Track 10 accurately ripped (confidence 3) [4B0224D9] (AR v2)

All tracks accurately ripped

End of status report

–– CUETools DB Plugin V2.1.6

[CTDB TOCID: mhYp9.KPkpMbF7RVRzusCE3yqB8-] found
Submit result: already submitted
Track | CTDB Status
1 | (33/33) Accurately ripped
2 | (33/33) Accurately ripped
3 | (33/33) Accurately ripped
4 | (33/33) Accurately ripped
5 | (33/33) Accurately ripped
6 | (33/33) Accurately ripped
7 | (33/33) Accurately ripped
8 | (33/33) Accurately ripped
9 | (33/33) Accurately ripped
10 | (33/33) Accurately ripped

==== Log checksum 572B9388AB5751317D2309DCE011B20914EECFA009B66AD5211511E301FFDF27 ====

DR log
foobar2000 1.2 / Dynamic Range Meter 1.1.1
log date: 2016-12-27 14:14:39

––––––––––––––––––––––––––––––––––––––––
Analyzed: Garth Brooks / Gunslinger
––––––––––––––––––––––––––––––––––––––––

DR Peak RMS Duration Track
––––––––––––––––––––––––––––––––––––––––
DR8 -0.60 dB -9.77 dB 2:25 01-Honky-Tonk Somewhere
DR8 -0.60 dB -10.40 dB 2:41 02-Weekend
DR7 -0.60 dB -10.12 dB 3:32 03-Ask Me How I Know
DR8 -0.60 dB -9.70 dB 3:11 04-Baby, Let’s Lay Down and Dance
DR7 -0.60 dB -10.89 dB 4:01 05-He Really Loves You
DR6 -0.60 dB -9.09 dB 3:49 06-Pure Adrenaline
DR6 -0.60 dB -10.09 dB 4:13 07-Whiskey To Wine
DR7 -0.60 dB -9.11 dB 3:13 08-Bang! Bang!
DR7 -0.60 dB -9.97 dB 3:15 09-Cowboys and Friends
DR7 -0.60 dB -9.50 dB 4:51 10-8Teen
––––––––––––––––––––––––––––––––––––––––

Number of tracks: 10
Official DR value: DR7

Samplerate: 44100 Hz
Channels: 2
Bits per sample: 16
Bitrate: 898 kbps
Codec: FLAC
================================================================================

Garth Brooks - Gunslinger (2016)

Garth Brooks - Gunslinger (2016)

All thanks to original releaser – Dedminey

More interesting music in My Blog

Garth Brooks – Gunslinger (2016) Download, Warez, DDL, Free, Full Album, Torrent, Legal.

Download