Gamma Ray – The Karaoke Album (1997) [Victor VICP-60135, Japan]

Download
Gamma Ray - The Karaoke Album (1997) [Victor VICP-60135, Japan]

Gamma Ray – The Karaoke Album (1997)
EAC | Flac(Image) + Cue + Log & MP3 CBR 320Kbps
Victor Entertainment, VICP-60135 | ~ 466 or 148 Mb | Scans(jpg) -> 22 Mb
Heavy Metal / Power Metal

~ Japanese Exclusive Release featuring Instrumental Versions of More Than 10 Original Gamma Ray Tracks for Sing Along Karaoke Purposes. ~

if you ever wondered, Is there any instrumental power metal albums out there? Well, this is it. Although not intended as such, this collection of 10 Gamma Ray tracks with the lead vocals removed is an awesome collection of instrumental speed and heavy metal. Except for two tracks (Somewhere out in Space, and Shine On) which retain too much of the backing vocals in the mix, all the songs work extremely well as instrumentals mainly due to the great musicianship of bandleader Kai Hansen & the rest of the band and the high-energy nature of their songwriting. Great CD !

By SnowDog3000, amazon

It’s a pretty safe bet that anyone who would purchase a karaoke album by any metal band would be among the most committed of fans, in every sense of the word. But one who buys a karaoke album of a band that prides itself on challenging Judas Priest for the most ridiculously high vocal extravaganza in metal history, that’s the sort of commitment that only a resident of a maximum security psychiatric ward could appreciate. Who would be crazy enough to purchase such an album and try to sing every melody on these 10 classic Gamma Ray songs note for note? Well, I was, and technically I still am since I test my vocal limits on extended road trips to this.

Putting my impossible aspirations of being Kai Hansen aside for a moment, musically this release does have a couple of functions aside from being a tool for power metal fan boys who want to become vocalists when they grow up. There are things going on in the arrangements of a lot of this material, but most specifically the material from “Somewhere Out In Space” which are utterly buried by the lead vocals. Much like those miniscule little details that you take for granted in the background of a movie set, which you’d likely miss if they weren’t there, there are a plethora of keyboard counter-themes, lead guitar fills and bass activity that you all but completely miss next to the fury of Kai’s mighty pipes. Consider it a sort of behind the scenes tour that DVDs often have as special features if this doesn’t make any sense to you.

This isn’t necessarily limited to the “Somewhere Out In Space” material, nor even the music if you account for the vocal material that’s left in. There’s nothing quite like a bunch of power metal songs with no lead vocals to make you appreciate the function of the melodic gang choruses these crazy Germans love so much. It’s mostly a factor on “Somewhere In Space”, but there are a fair share of them leaping in and out of “Time To Break Free” and “Abyss Of The Void”. Oh and let us not forget all the riffs piled upon riffs going on during the various sections of “Man On A Mission”. I’ve been listening to this song for the better part of 10 years and I didn’t even know they had that one lead guitar theme underneath the pre-chorus until I heard it without the vocals.

Anyway, for those of you who are a little curious as to what its like to try to sing through all of these songs without Kai’s voice covering up all of your rhythmic mistakes and off-tune notes, I was surprised myself after I got finished with it the first time through. The easiest song on here is “Time To Break Free”, which may shock most Michael Kiske enthusiasts who recall his amazing work on the Keepers albums. The hardest one, by a pretty significant margin, was “Heading For Tomorrow”. I swear I nearly severed my vocal chords trying to hit that high note that he does during the chorus, especially after those brutal verses. To all of you Ralf Scheepers detractors out there, I challenge you to try downloading the karaoke version of this song and record yourself singing it and then tell me that he’s still a sucky vocalist.

This is fodder for core fans only, as I doubt that most every day fans of metal can stand listening to a bunch of songs with no vocals. If you love Gamma Ray and want to learn some of their songs on guitar, this might be a good tool for hearing those background parts. And if you want to become a power metal vocalist, this little CD is the absolute acid test as far as I’m concerned. Naturally since this is a pretty small segment of the listening public, this will remain a cult release regardless to how much lavish praise I shower it with, so unless you’ve got money to blow, just wait until they put out their next album.

By hells_unicorn, metal-archives.com

Gamma Ray – The Karaoke Album (1997):

Gamma Ray - The Karaoke Album (1997) [Victor VICP-60135, Japan]

Tracklist:

1. Beyond The Black Hole
2. Men, Martians And Machines
3. Valley Of The Kings
4. Somewhere Out In Space
5. Shine On
6. Space Eater
7. Abyss Of The Void
8. Man On A Mission
9. Time To Break Free
10. Heading For Tomorrow

EAC Log
Exact Audio Copy V1.0 beta 3 from 29. August 2011

EAC extraction logfile from 2. July 2017, 17:55

Gamma Ray / The Karaoke Album [VICP-60135]

Used drive : HP DVD Writer 640v Adapter: 3 ID: 1

Read mode : Secure
Utilize accurate stream : Yes
Defeat audio cache : Yes
Make use of C2 pointers : No

Read offset correction : 618
Overread into Lead-In and Lead-Out : No
Fill up missing offset samples with silence : Yes
Delete leading and trailing silent blocks : No
Null samples used in CRC calculations : Yes
Used interface : Installed external ASPI interface

Used output format : User Defined Encoder
Selected bitrate : 1024 kBit/s
Quality : High
Add ID3 tag : No
Command line compressor : C:Program Files (x86)Exact Audio CopyFlacflac.exe
Additional command line options : -V -8 -T "Date=%year%" -T "Genre=%genre%" %source%

TOC of the extracted CD

Track | Start | Length | Start sector | End sector
––––––––––––––––––––––––––––-
1 | 0:00.37 | 6:02.03 | 37 | 27189
2 | 6:02.40 | 3:53.02 | 27190 | 44666
3 | 9:55.42 | 3:52.45 | 44667 | 62111
4 | 13:48.12 | 5:28.70 | 62112 | 86781
5 | 19:17.07 | 7:46.03 | 86782 | 121734
6 | 27:03.10 | 4:28.45 | 121735 | 141879
7 | 31:31.55 | 6:03.57 | 141880 | 169161
8 | 37:35.37 | 5:55.40 | 169162 | 195826
9 | 43:31.02 | 4:40.18 | 195827 | 216844
10 | 48:11.20 | 14:29.60 | 216845 | 282079

Range status and errors

Selected range

Filename D:CDRip by BallcrusherGamma Ray – The Karaoke Album [VICP-60135].wav

Peak level 99.0 %
Extraction speed 2.2 X
Range quality 100.0 %
Test CRC 982A6EB4
Copy CRC 982A6EB4
Copy OK

No errors occurred

AccurateRip summary

Track 1 accurately ripped (confidence 1) [0CFC47AF] (AR v2)
Track 2 accurately ripped (confidence 1) [72293761] (AR v2)
Track 3 accurately ripped (confidence 1) [DE466971] (AR v2)
Track 4 accurately ripped (confidence 1) [E0813DA1] (AR v2)
Track 5 accurately ripped (confidence 1) [4EC3FDA4] (AR v2)
Track 6 accurately ripped (confidence 1) [C721B0F1] (AR v2)
Track 7 accurately ripped (confidence 1) [CD2EEE1D] (AR v2)
Track 8 accurately ripped (confidence 1) [4F9A63DE] (AR v2)
Track 9 accurately ripped (confidence 1) [A0EA434E] (AR v2)
Track 10 accurately ripped (confidence 1) [985A3C0C] (AR v2)

All tracks accurately ripped

End of status report

==== Log checksum 738D94E8081643407E3DEABF7D17C2770D95447F051FFFA20B93D08C1D3F9087 ====

DR Log
foobar2000 1.2.9 / Dynamic Range Meter 1.1.1
log date: 2017-07-09 17:29:51

––––––––––––––––––––––––––––––––––––––––
Analyzed: Gamma Ray / The Karaoke Album (VICP-60135)
––––––––––––––––––––––––––––––––––––––––

DR Peak RMS Duration Track
––––––––––––––––––––––––––––––––––––––––
DR6 -0.09 dB -6.93 dB 6:02 01-Beyond The Black Hole
DR6 -0.09 dB -6.87 dB 3:53 02-Men, Martians And Machines
DR6 -0.09 dB -7.53 dB 3:53 03-Valley Of The Kings
DR6 -0.08 dB -6.88 dB 5:29 04-Somewhere Out In Space
DR6 -0.09 dB -7.84 dB 7:46 05-Shine On
DR8 -0.10 dB -9.16 dB 4:29 06-Space Eater
DR6 -0.17 dB -8.19 dB 6:04 07-Abyss Of The Void
DR6 -0.09 dB -6.66 dB 5:56 08-Man On A Mission
DR7 -0.12 dB -7.63 dB 4:40 09-Time To Break Free
DR8 -0.50 dB -10.27 dB 14:30 10-Heading For Tomorrow
––––––––––––––––––––––––––––––––––––––––

Number of tracks: 10
Official DR value: DR6

Samplerate: 44100 Hz
Channels: 2
Bits per sample: 16
Bitrate: 1010 kbps
Codec: FLAC

CUETools Log
[CUETools log; Date: 08.07.2017 15:56:08; Version: 2.1.4]
Pregap length 00:00:37.
[CTDB TOCID: D_2iGdnYZdy1vso5nbBANsZap0E-] found.
Track | CTDB Status
1 | (2/2) Accurately ripped
2 | (2/2) Accurately ripped
3 | (2/2) Accurately ripped
4 | (2/2) Accurately ripped
5 | (2/2) Accurately ripped
6 | (2/2) Accurately ripped
7 | (2/2) Accurately ripped
8 | (2/2) Accurately ripped
9 | (2/2) Accurately ripped
10 | (2/2) Accurately ripped
[AccurateRip ID: 001492dd-00a79027-940eb10a] found.
Track [ CRC | V2 ] Status
01 [e988c44d|0cfc47af] (0+1/2) Accurately ripped
02 [3bc2f1c7|72293761] (0+1/2) Accurately ripped
03 [d74fcd9c|de466971] (0+1/2) Accurately ripped
04 [effb148a|e0813da1] (0+1/2) Accurately ripped
05 [39c118b6|4ec3fda4] (0+1/2) Accurately ripped
06 [94c5785f|c721b0f1] (0+1/2) Accurately ripped
07 [604db4e6|cd2eee1d] (0+1/2) Accurately ripped
08 [194607a0|4f9a63de] (0+1/2) Accurately ripped
09 [88d84f25|a0ea434e] (0+1/2) Accurately ripped
10 [2b5f0688|985a3c0c] (0+1/2) Accurately ripped
Offsetted by -115:
01 [37aa20a9] (1/2) Accurately ripped
02 [b67f5f01] (1/2) Accurately ripped
03 [f339cd67] (1/2) Accurately ripped
04 [99175845] (1/2) Accurately ripped
05 [4e7ac657] (1/2) Accurately ripped
06 [853bd6ea] (1/2) Accurately ripped
07 [d480dec2] (1/2) Accurately ripped
08 [d66c0334] (1/2) Accurately ripped
09 [b39faa81] (1/2) Accurately ripped
10 [a0a370d3] (1/2) Accurately ripped

Track Peak [ CRC32 ] [W/O NULL] [ LOG ]
– 99,0 [982A6EB4] [3BA1CE3A] CRC32
01 98,9 [64345687] [298B4D99]
02 98,9 [13981D2E] [1FFA27AF]
03 99,0 [70BE7D4F] [8CA19890]
04 99,0 [284537C6] [0ACA2EE8]
05 98,9 [0F9D511D] [DA3A7C41]
06 98,8 [6F1B5F38] [A8427C5B]
07 98,0 [84F11461] [E46D9FBA]
08 99,0 [9537A977] [87499B12]
09 98,6 [362C81D2] [E0BBE582]
10 94,4 [29A83247] [AA729249]

Gamma Ray - The Karaoke Album (1997) [Victor VICP-60135, Japan]

All thanks go to Sergey_155

Gamma Ray in my Blog

Download Gamma Ray – The Karaoke Album (1997):

Gamma Ray – The Karaoke Album (1997) [Victor VICP-60135, Japan] Download, Warez, DDL, Free, Full Album, Torrent, Legal.

Download