Gamma Ray: 8 Japanese Edition CD (1995 – 2007)

Download
Gamma Ray: 8 Japanese Edition CD (1995 - 2007)

Gamma Ray: 8 Japanese Edition CD (1995 – 2007)
EAC | Flac(Image) + Cue + Log & MP3 CBR 320Kbps
8CD | Victor Entertainment | ~ 3781 or 1184 Mb | Scans(jpg) -> 613 Mb
Heavy / Power Metal

Kai Hansen formed Helloween in 1984, playing guitar and singing on the speed metal band’s first four albums. He left in early 1989, however, and founded Gamma Ray with vocalist Ralf Scheepers (formerly with Tyran Pace). The duo intended to record a one-off project that Hansen originated while in Helloween, so they recruited bassist Uwe Wessel, drummer Matthias Burchardt, and several other musicians. The album, Heading for Tomorrow, was released in 1990 and proved a hit with fans and critics, so much so that Hansen, Scheepers, and Wessel decided to tour the album with added members Dirk Schlacter (guitar) and Uli Kusch (drums). During the tour the Heaven Can Wait EP was released. By 1991, Gamma Ray produced another album of new material, entitled Sigh No More. Following 1993’s Insanity & Genius, vocalist Scheepers departed to try out for Judas Priest; he didn’t get the gig, but opted to form a new band called Primal Fear rather than return to the fold, leaving Hansen to take over vocal duties on 1995’s Land of the Free. Further recordings with Hansen as lead vocalist followed, including 1997’s Somewhere Out in Space, 1998’s Valley of the Kings, and 1999’s Power Plant. Blast from the Past was released in 2000. Gamma Ray returned to a raging New Wave of British Heavy Metal style for 2001’s No World Order, and followed that album with the live set Skeleton in the Closet. Gamma Ray returned in 2005 with Majestic, the release of which was accompanied by a world tour. In 2007, Gamma Ray released Land of the Free II (the sequel to 1995’s Land of the Free), and went on tour with Helloween to promote the album. Three years later, the band released its tenth full-length album, To the Metal! In 2012, drummer Daniel Zimmermann left the group after 15 years. He was replaced by Michael Ehre. The band released their eleventh studio album, Empire of the Undead, which took the band’s sound in a more thrash-oriented direction, in the spring 2014.

by John Bush, allmusic

Gamma Ray: 8 Japanese Edition CD (1995 – 2007):

Gamma Ray: 8 Japanese Edition CD (1995 - 2007)

CD01: Gamma Ray – Land Of The Free (1995)
EAC | Flac(Image) + Cue + Log & MP3 CBR 320Kbps
Victor Entertainment, VICP-5537 | ~ 419 or 134 Mb | Scans(jpg) -> 45 Mb
Heavy / Power Metal

The stigma of Helloween is a hard one to get rid off, as illustrated on Gamma Ray’s first three LPs. Kai Hansen succeeded in creating a band of his own, but he couldn’t come up with an idiosyncratic style or even implement it well. Land of the Free is, however, a complete success considering Hansen’s progression. Land of the Free intriguingly breaks the basic concept that Gamma Ray’s contemporaries have used so much. The opener, "Rebellion in Dreamland," for example, doesn’t have a decent structure. The seven-minute piece is constructed in many different parts, instead of the verse-chorus-verse pattern that is so typical of other metal bands. Also, most importantly, their large sound is achieved by using synths and sound effects, so Land of the Free offers a lot more than just distorted guitars and high-pitched singing. The songs themselves have their downsides, but mostly – because of their structure – the riffs are very inventive and succeed in being both catchy and diverse. The actual songs (there are many short pieces between songs) as wholes are flawless, so Land of the Free is an almost-perfect album. It really serves the definition of power metal well and is indeed one of the most metal albums of the late ’90s.

by Antti J. Ravelin, allmusic

Tracklist:

1. Rebellion In Dreamland
2. Man On A Mission
3. Fairytale
4. All Of The Damned
5. Rising Of The Damned
6. Gods Of Deliverance
7. Farewell
8. Salvation’s Calling
9. Land Of The Free
10. The Saviour
11. Abyss Of The Void
12. Time To Break Free
13. Afterlife

EAC Log
Exact Audio Copy V1.0 beta 3 from 29. August 2011

EAC extraction logfile from 24. July 2014, 17:17

Gamma Ray / Land Of The Free

Used drive : PIONEER DVD-RW DVR-111D Adapter: 4 ID: 1

Read mode : Secure
Utilize accurate stream : Yes
Defeat audio cache : Yes
Make use of C2 pointers : No

Read offset correction : 48
Overread into Lead-In and Lead-Out : No
Fill up missing offset samples with silence : Yes
Delete leading and trailing silent blocks : No
Null samples used in CRC calculations : Yes
Used interface : Native Win32 interface for Win NT & 2000

Used output format : User Defined Encoder
Selected bitrate : 128 kBit/s
Quality : High
Add ID3 tag : No
Command line compressor : F:Program FilesFLACflac.exe
Additional command line options : -V -8 -T "Date=%year%" -T "Genre=%genre%" %source%

TOC of the extracted CD

Track | Start | Length | Start sector | End sector
––––––––––––––––––––––––––––-
1 | 0:00.37 | 8:44.52 | 37 | 39388
2 | 8:45.14 | 5:48.20 | 39389 | 65508
3 | 14:33.34 | 0:49.43 | 65509 | 69226
4 | 15:23.02 | 5:00.60 | 69227 | 91786
5 | 20:23.62 | 0:43.55 | 91787 | 95066
6 | 21:07.42 | 5:01.27 | 95067 | 117668
7 | 26:08.69 | 5:11.18 | 117669 | 141011
8 | 31:20.12 | 4:35.57 | 141012 | 161693
9 | 35:55.69 | 4:38.03 | 161694 | 182546
10 | 40:33.72 | 0:40.57 | 182547 | 185603
11 | 41:14.54 | 6:02.58 | 185604 | 212811
12 | 47:17.37 | 4:39.72 | 212812 | 233808
13 | 51:57.34 | 4:45.65 | 233809 | 255248

Range status and errors

Selected range

Filename D:EAC – Hellixxx ripGamma Ray – 1995 – Land of The Free (VICP-5537).wav

Peak level 99.9 %
Extraction speed 7.2 X
Range quality 99.9 %
Test CRC 6861F62E
Copy CRC 6861F62E
Copy OK

No errors occurred

AccurateRip summary

Track 1 accurately ripped (confidence 7) [FBD210F2] (AR v2)
Track 2 accurately ripped (confidence 7) [C1E65B98] (AR v2)
Track 3 accurately ripped (confidence 7) [8B2C826B] (AR v2)
Track 4 accurately ripped (confidence 7) [3249AFFD] (AR v2)
Track 5 accurately ripped (confidence 7) [CB5AC8DB] (AR v2)
Track 6 accurately ripped (confidence 7) [E66EC736] (AR v2)
Track 7 accurately ripped (confidence 7) [9E5635A2] (AR v2)
Track 8 accurately ripped (confidence 7) [EC044649] (AR v2)
Track 9 accurately ripped (confidence 7) [C766F7D9] (AR v2)
Track 10 accurately ripped (confidence 7) [4CBBA753] (AR v2)
Track 11 accurately ripped (confidence 7) [0D71E7B4] (AR v2)
Track 12 accurately ripped (confidence 7) [5C335348] (AR v2)
Track 13 accurately ripped (confidence 7) [C2161CE1] (AR v2)

All tracks accurately ripped

End of status report

==== Log checksum 16BE5AD578CD79092FFA0CA5EB47AFB5D926808CBA2BB0B621DEFA61DC04D179 ====

CUETools Log
[CUETools log; Date: 08.07.2017 16:06:20; Version: 2.1.4]
Pregap length 00:00:37.
[CTDB TOCID: 1e4wZtuPxQAOkssbyljgiTNBSno-] found.
Track | CTDB Status
1 | (30/30) Accurately ripped
2 | (30/30) Accurately ripped
3 | (30/30) Accurately ripped
4 | (30/30) Accurately ripped
5 | (30/30) Accurately ripped
6 | (30/30) Accurately ripped
7 | (30/30) Accurately ripped
8 | (30/30) Accurately ripped
9 | (30/30) Accurately ripped
10 | (30/30) Accurately ripped
11 | (30/30) Accurately ripped
12 | (30/30) Accurately ripped
13 | (30/30) Accurately ripped
[AccurateRip ID: 001c4014-01130049-c40d4b0d] found.
Track [ CRC | V2 ] Status
01 [1f037753|fbd210f2] (04+09/13) Accurately ripped
02 [ba3c39dc|c1e65b98] (04+09/13) Accurately ripped
03 [d0cf284e|8b2c826b] (04+09/13) Accurately ripped
04 [ff446194|3249affd] (03+09/12) Accurately ripped
05 [32f93166|cb5ac8db] (04+09/13) Accurately ripped
06 [87ad09cc|e66ec736] (04+09/13) Accurately ripped
07 [f1f460bf|9e5635a2] (03+09/12) Accurately ripped
08 [7a981c2d|ec044649] (04+09/13) Accurately ripped
09 [d291889e|c766f7d9] (04+09/13) Accurately ripped
10 [13f2474b|4cbba753] (04+09/13) Accurately ripped
11 [a0a07d32|0d71e7b4] (04+09/13) Accurately ripped
12 [13dafc6c|5c335348] (04+09/13) Accurately ripped
13 [46c88402|c2161ce1] (04+09/13) Accurately ripped

Track Peak [ CRC32 ] [W/O NULL] [ LOG ]
– 99,9 [6861F62E] [BDB9B74A] CRC32
01 99,9 [E994EB95] [5CD746E1]
02 96,0 [461EC710] [603AF5AD]
03 94,3 [B91FEB4F] [3DBA9B06]
04 99,9 [5BCC4B3C] [BB0ED1A5]
05 99,9 [8315574D] [164FFA1A]
06 95,3 [E87ACDC7] [69B9CEC3]
07 99,9 [8F038739] [28E8FA63]
08 96,1 [96BD17B9] [658E354B]
09 99,8 [D8BDD2E8] [E7B031B3]
10 99,9 [C18EF18A] [2759DC75]
11 99,9 [F3E6F768] [D622B62A]
12 94,3 [7FD57851] [D2877D6B]
13 99,9 [6BA0F953] [BFD8A009]

* * * * *

Gamma Ray: 8 Japanese Edition CD (1995 - 2007)

CD02: Gamma Ray – Alive ’95 (1996)
EAC | Flac(Image) + Cue + Log & MP3 CBR 320Kbps
Victor Entertainment, VICP-5714 | ~ 530 or 167 Mb | Scans(jpg) -> 60 Mb
Heavy / Power Metal

This release was one of the few power metal releases that made being a North American a bonus, for the USA release actually contained a bonus CD with material recorded with Ralf Scheepers still at the helm in 1993. The CD contains much of the best songs from the 3 albums of their early era, the stand out performances being “No Return”, “Heading for Tomorrow/Dream Healer” and “Last Before the Storm”.

Most of the best tracks off of the “Land of the Free album” made it into the performance, including such classics as “Man on a Mission” and “Rebellion in Dreamland”. Other classic Gamma Ray material includes “Space Eater” and “Lust for Life’ off of their first album, as well as “Heal Me” and “Tribute to the Past” off of Insanity and Genius. Kai Hansen’s renditions of the old Scheepers material is extremely well done, especially considering the range and power of the latter’s voice, and the fact that he didn’t have a guitar in his hand while performing (as Kai was, often playing lead).

Not to forget where he comes from, Kai and his band have also seen fit to include two classic Helloween tracks composed by himself. “Future World” is a particularly interesting track because we find Kai singing a song originally performed by Michael Kiske, another formidable vocalist whose shoes are extremely difficult to fill. He pulls it off well, though I did find myself missing the flash and flair of the original vocalist of the song. “Ride the Sky” sees Kai returning to what he originally did best, throwing out high notes like there is no tomorrow. This particular performance is so much like the original version of the song that I often find myself checking the CD jacket to make sure I’m listening to a live album.

The other musicians perform their parts well, particularly Dirk Schlachter during the various guitar solos, and the few instances where he is manning the keyboards. The rhythm section is tight and together, Thomas Knack has done some amazing work with Iron Savior of late, and this album sees the early period in which his drumming is already starting to develop into something spectacular. Here is how I rate the tracks.

Exceptional: Land of the Free, Man on a Mission, Rebellion in Dreamland, The Savior, Abyss of the Void, Lust for Life, No Return, Ride the Sky.

Good: Tribute to the Past, Last Before the Storm, Future World, Heavy Metal Mania, Space Eater, Heal Me, Fairytale, Future World, Heading for Tomorrow/Dream Healer.

Fair: Changes, Insanity and Genius, Future Madhouse.

In conclusion, I highly recommend this live album to fans of Gamma Ray and Helloween alike. Fans of Iron Savior and Primal Fear may also wish to check this album out since members of those two bands are present on this album. Metal fans in general will like this, though obviously the ones who hate melody will not be pleased, which comes as no surprise of course.

by hells_unicorn, metal-archives

Tracklist:

1. Land Of The Free
2. Man On A Mission
3. Rebellion In Dreamland
4. Space Eater
5. Fairytale
6. Tribute To The Past
7. Heal Me
8. The Saviour
9. Abyss Of The Void
10. Ride The Sky
11. Future World
12. Heavy Metal Mania
13. Lust For Life (Bonus track)

EAC Log
Exact Audio Copy V1.3 from 2. September 2016

EAC extraction logfile from 19. June 2017, 17:45

Gamma Ray / Alive ’95

Used drive : ATAPI iHAS122 W Adapter: 2 ID: 0

Read mode : Secure
Utilize accurate stream : Yes
Defeat audio cache : Yes
Make use of C2 pointers : No

Read offset correction : 48
Overread into Lead-In and Lead-Out : No
Fill up missing offset samples with silence : Yes
Delete leading and trailing silent blocks : No
Null samples used in CRC calculations : Yes
Used interface : Installed external ASPI interface

Used output format : User Defined Encoder
Selected bitrate : 1024 kBit/s
Quality : High
Add ID3 tag : No
Command line compressor : C:Program FilesFLACflac.exe
Additional command line options : -V -8 -T "Date=%year%" -T "Genre=%genre%" -T"COMMENT=Ripped by Ilijan – ilko" -8 -V %source%

TOC of the extracted CD

Track | Start | Length | Start sector | End sector
––––––––––––––––––––––––––––-
1 | 0:00.37 | 5:28.73 | 37 | 24709
2 | 5:29.35 | 5:53.40 | 24710 | 51224
3 | 11:23.00 | 8:24.52 | 51225 | 89076
4 | 19:47.52 | 4:44.55 | 89077 | 110431
5 | 24:32.32 | 0:44.38 | 110432 | 113769
6 | 25:16.70 | 4:47.62 | 113770 | 135356
7 | 30:04.57 | 7:26.40 | 135357 | 168846
8 | 37:31.22 | 1:30.20 | 168847 | 175616
9 | 39:01.42 | 5:53.65 | 175617 | 202156
10 | 44:55.32 | 5:46.53 | 202157 | 228159
11 | 50:42.10 | 7:28.45 | 228160 | 261804
12 | 58:10.55 | 6:27.10 | 261805 | 290839
13 | 64:37.65 | 6:13.37 | 290840 | 318851

Range status and errors

Selected range

Filename D:ilkoGamma Ray – Alive ’95.wav

Peak level 100.0 %
Extraction speed 4.5 X
Range quality 100.0 %
Test CRC 3AA5BC33
Copy CRC 3AA5BC33
Copy OK

No errors occurred

AccurateRip summary

Track 1 accurately ripped (confidence 4) [72AFB16A] (AR v2)
Track 2 accurately ripped (confidence 4) [2B5B6654] (AR v2)
Track 3 accurately ripped (confidence 4) [C5359DF5] (AR v2)
Track 4 accurately ripped (confidence 4) [7870C650] (AR v2)
Track 5 accurately ripped (confidence 4) [9BBB2611] (AR v2)
Track 6 accurately ripped (confidence 4) [F168B100] (AR v2)
Track 7 accurately ripped (confidence 4) [09E21216] (AR v2)
Track 8 accurately ripped (confidence 4) [6A507DD3] (AR v2)
Track 9 accurately ripped (confidence 4) [C99B5A1A] (AR v2)
Track 10 accurately ripped (confidence 4) [77D45349] (AR v2)
Track 11 accurately ripped (confidence 4) [F664CE79] (AR v2)
Track 12 accurately ripped (confidence 4) [1C6209CD] (AR v2)
Track 13 accurately ripped (confidence 4) [369BD243] (AR v2)

All tracks accurately ripped

End of status report

–– CUETools DB Plugin V2.1.6

[CTDB TOCID: Qm9NwbjcAcByrm0.85OfBz_Yoq0-] found
Submit result: Qm9NwbjcAcByrm0.85OfBz_Yoq0- has been confirmed
Track | CTDB Status
1 | (14/14) Accurately ripped
2 | (14/14) Accurately ripped
3 | (14/14) Accurately ripped
4 | (14/14) Accurately ripped
5 | (14/14) Accurately ripped
6 | (14/14) Accurately ripped
7 | (14/14) Accurately ripped
8 | (14/14) Accurately ripped
9 | (14/14) Accurately ripped
10 | (14/14) Accurately ripped
11 | (14/14) Accurately ripped
12 | (14/14) Accurately ripped
13 | (14/14) Accurately ripped

==== Log checksum 2B30BDDA07844A89DF7E25A4730AC7CBB8BF8577B20B8AD2FAAC67C22CFABB0C ====

CUETools Log
[CUETools log; Date: 08.07.2017 15:57:41; Version: 2.1.4]
Pregap length 00:00:37.
[CTDB TOCID: Qm9NwbjcAcByrm0.85OfBz_Yoq0-] found.
Track | CTDB Status
1 | (15/15) Accurately ripped
2 | (15/15) Accurately ripped
3 | (15/15) Accurately ripped
4 | (15/15) Accurately ripped
5 | (15/15) Accurately ripped
6 | (15/15) Accurately ripped
7 | (15/15) Accurately ripped
8 | (15/15) Accurately ripped
9 | (15/15) Accurately ripped
10 | (15/15) Accurately ripped
11 | (15/15) Accurately ripped
12 | (15/15) Accurately ripped
13 | (15/15) Accurately ripped
[AccurateRip ID: 00212006-01497366-c5109b0d] found.
Track [ CRC | V2 ] Status
01 [300d0b67|72afb16a] (0+4/4) Accurately ripped
02 [493d72c2|2b5b6654] (0+4/4) Accurately ripped
03 [03725718|c5359df5] (0+4/4) Accurately ripped
04 [dcd7b02a|7870c650] (0+4/4) Accurately ripped
05 [31af3082|9bbb2611] (0+4/4) Accurately ripped
06 [15da96bc|f168b100] (0+4/4) Accurately ripped
07 [b833be69|09e21216] (0+4/4) Accurately ripped
08 [2ce8db3f|6a507dd3] (0+4/4) Accurately ripped
09 [0dc42cdc|c99b5a1a] (0+4/4) Accurately ripped
10 [c8f5bb2c|77d45349] (0+4/4) Accurately ripped
11 [03837c69|f664ce79] (0+4/4) Accurately ripped
12 [f1004553|1c6209cd] (0+4/4) Accurately ripped
13 [591d8319|369bd243] (0+4/4) Accurately ripped

Track Peak [ CRC32 ] [W/O NULL] [ LOG ]
– 100,0 [3AA5BC33] [1CC59EED] CRC32
01 89,1 [D80E039C] [CC1BD239]
02 93,7 [92CCB0AB] [CF06261C]
03 95,2 [27EFBE06] [AE6FF7CE]
04 100,0 [8ACC45E3] [5FE994A3]
05 99,2 [0632DC54] [A0BB30BE]
06 100,0 [43594850] [D9937692]
07 78,7 [839942DF] [FC3B3A49]
08 98,7 [C5625D46] [C4ABC078]
09 93,8 [AA05FE3F] [419FDA44]
10 92,2 [9C53663B] [509E0603]
11 94,3 [787064D4] [4D8197BE]
12 100,0 [6A29D774] [C6577F1B]
13 99,9 [DE8807C6] [FA950394]

* * * * *

Gamma Ray: 8 Japanese Edition CD (1995 - 2007)

CD03: Gamma Ray – Somewhere Out In Space (1997)
EAC | Flac(Image) + Cue + Log & MP3 CBR 320Kbps
Victor Entertainment, VICP-60061 | ~ 471 or 150 Mb | Scans(jpg) -> 77 Mb
Heavy / Power Metal

Recorded in 1997 and released in the U.S. a year later, Gamma Ray’s fifth studio recording, Somewhere out in Space, is a concept album paying tribute to the film 2001: A Space Odyssey. The music largely follows the gothic Euro-metal style Kai Hansen employed with Helloween.

by Steve Huey, allmusic

Tracklist:

1. Beyond The Black Hole
2. Men, Martians And Machines
3. No Stranger (Another Day In Life)
4. Somewhere Out In Space
5. The Guardians Of Mankind
6. The Landing
7. Valley Of The Kings
8. Pray
9. The Winged Horse
10. Cosmic Chaos
11. Lost In The Future
12. Watcher In The Sky
13. Rising Star
14. Shine On
15. Return To Fantasy (Bonus track)

EAC Log
Exact Audio Copy V1.0 beta 3 from 29. August 2011

Отчёт EAC об извлечении, выполненном 2. января 2013, 12:35

GAMMA RAY / SOMEWHERE OUT IN SPACE

Дисковод: PIONEER DVD-RW DVR-111D Adapter: 4 ID: 1

Режим чтения : Достоверность
Использование точного потока : Да
Отключение кэша аудио : Да
Использование указателей C2 : Нет

Коррекция смещения при чтении : 48
Способность читать области Lead-in и Lead-out : Нет
Заполнение пропущенных сэмплов тишиной : Да
Удаление блоков с тишиной в начале и конце : Нет
При вычислениях CRC использовались нулевые сэмплы : Да
Интерфейс : Встроенный Win32-интерфейс для Win NT/2000

Выходной формат : Пользовательский кодировщик
Выбранный битрейт : 128 kBit/s
Качество : Высокий
Добавление ID3-тега : Нет
Утилита сжатия : F:Program FilesFLACflac.exe
Дополнительные параметры : -V -8 -T "Date=%year%" -T "Genre=%genre%" %source%

TOC извлечённого CD

Трек | Старт | Длительность | Начальный сектор | Конечный сектор
––––––––––––––––––––––––––––––––––-
1 | 0:00.37 | 6:00.28 | 37 | 27064
2 | 6:00.65 | 3:52.12 | 27065 | 44476
3 | 9:53.02 | 3:35.43 | 44477 | 60644
4 | 13:28.45 | 5:27.32 | 60645 | 85201
5 | 18:56.02 | 5:01.65 | 85202 | 107841
6 | 23:57.67 | 1:17.20 | 107842 | 113636
7 | 25:15.12 | 3:50.40 | 113637 | 130926
8 | 29:05.52 | 4:45.03 | 130927 | 152304
9 | 33:50.55 | 7:02.42 | 152305 | 183996
10 | 40:53.22 | 0:48.55 | 183997 | 187651
11 | 41:42.02 | 3:40.03 | 187652 | 204154
12 | 45:22.05 | 5:18.25 | 204155 | 228029
13 | 50:40.30 | 0:52.62 | 228030 | 231991
14 | 51:33.17 | 6:51.60 | 231992 | 262876
15 | 58:25.02 | 5:13.50 | 262877 | 286401

Характеристики диапазона извлечения и сообщения об ошибках

Выбранный диапазон

Имя файла D:EAC – extractGamma Ray – 1997 – Somewhere Out in Space (VICP-60061).wav

Пиковый уровень 98.8 %
Скорость извлечения 7.5 X
Качество диапазона 100.0 %
CRC теста 7108C149
CRC копии 7108C149
Копирование… OK

Ошибок не произошло

AccurateRip: сводка

Трек 1 : извлечено точно (доверие 2) [E8C59034] (AR v2)
Трек 2 : извлечено точно (доверие 2) [B20FEB74] (AR v2)
Трек 3 : извлечено точно (доверие 2) [4FCA7AC9] (AR v2)
Трек 4 : извлечено точно (доверие 2) [BECFEF82] (AR v2)
Трек 5 : извлечено точно (доверие 2) [429F7AF2] (AR v2)
Трек 6 : извлечено точно (доверие 2) [8FD0087A] (AR v2)
Трек 7 : извлечено точно (доверие 2) [E5FF7606] (AR v2)
Трек 8 : извлечено точно (доверие 2) [43C00034] (AR v2)
Трек 9 : извлечено точно (доверие 2) [1ABFDD62] (AR v2)
Трек 10 : извлечено точно (доверие 2) [B5737422] (AR v2)
Трек 11 : извлечено точно (доверие 2) [E1D5C707] (AR v2)
Трек 12 : извлечено точно (доверие 2) [B7A1D3E4] (AR v2)
Трек 13 : извлечено точно (доверие 2) [5EB8ACAE] (AR v2)
Трек 14 : извлечено точно (доверие 2) [7910B5E5] (AR v2)
Трек 15 : извлечено точно (доверие 2) [18A91D7C] (AR v2)

Все треки извлечены точно

Конец отчёта

==== Контрольная сумма отчёта ECD745CFE52CF8EC52387F9536AABE5F17E6E2B2B031448B309EF10B2B491553 ====

CUETools Log
[CUETools log; Date: 08.07.2017 16:07:12; Version: 2.1.4]
Pregap length 00:00:37.
[CTDB TOCID: i4YJvYjPm38qE7DzJTeaYHmeJbI-] found.
Track | CTDB Status
1 | (38/39) Accurately ripped
2 | (38/39) Accurately ripped
3 | (38/39) Accurately ripped
4 | (38/39) Accurately ripped
5 | (38/39) Accurately ripped
6 | (38/39) Accurately ripped
7 | (38/39) Accurately ripped
8 | (38/39) Accurately ripped
9 | (38/39) Accurately ripped
10 | (38/39) Accurately ripped
11 | (37/39) Accurately ripped
12 | (38/39) Accurately ripped
13 | (38/39) Accurately ripped
14 | (38/39) Accurately ripped
15 | (38/39) Accurately ripped
[AccurateRip ID: 002334aa-0189cf57-c20eea0f] found.
Track [ CRC | V2 ] Status
01 [f40479d0|e8c59034] (06+14/20) Accurately ripped
02 [118a8d0f|b20feb74] (06+14/20) Accurately ripped
03 [2413857f|4fca7ac9] (06+14/20) Accurately ripped
04 [b1813eb4|becfef82] (06+14/20) Accurately ripped
05 [99f70117|429f7af2] (06+14/20) Accurately ripped
06 [182fccb4|8fd0087a] (06+14/20) Accurately ripped
07 [16fe3918|e5ff7606] (06+14/20) Accurately ripped
08 [e591e7b6|43c00034] (06+14/20) Accurately ripped
09 [4e8f023a|1abfdd62] (06+14/20) Accurately ripped
10 [778587a1|b5737422] (06+14/20) Accurately ripped
11 [a8d96594|e1d5c707] (06+14/20) Accurately ripped
12 [8a004436|b7a1d3e4] (06+14/20) Accurately ripped
13 [295ea308|5eb8acae] (06+14/20) Accurately ripped
14 [7838ba99|7910b5e5] (05+14/19) Accurately ripped
15 [d7f59a4e|18a91d7c] (06+14/20) Accurately ripped

Track Peak [ CRC32 ] [W/O NULL] [ LOG ]
– 98,8 [7108C149] [3528573B] CRC32
01 97,7 [71085672] [92021409]
02 98,8 [905067CA] [67DAD2DF]
03 93,3 [403396DB] [F9D7C890]
04 98,8 [C8B7CE03] [6B619453]
05 98,8 [9577B108] [C0B1EBF9]
06 97,8 [B75AAE2D] [7A866051]
07 98,8 [B619112A] [666FD4C6]
08 98,8 [8B6501A7] [97B5A3EE]
09 93,3 [4DA09277] [4FAC2293]
10 93,6 [14845B3C] [424B9501]
11 98,8 [4B780BA5] [8ED12B01]
12 98,8 [7A6943E9] [559AE364]
13 98,8 [DDFE5524] [06AF5E29]
14 98,8 [3A6BF752] [8677937A]
15 98,8 [1F137AD1] [B3A4DE4D]

* * * * *

Gamma Ray: 8 Japanese Edition CD (1995 - 2007)

CD04: Gamma Ray – Powerplant (1999)
EAC | Flac(Image) + Cue + Log & MP3 CBR 320Kbps
Victor Entertainment, VICP-60649 | ~ 512 or 159 Mb | Scans(jpg) -> 156 Mb
Heavy / Power Metal

Kai Hansen left Helloween in 1989 because, as he saw it, the band was straying from its roots in high-speed yet melodic, British-derived metal. His refusal to bow to trends and stick to the style he clearly loves is admirable, but on the other hand, it doesn’t allow for much growth or evolution. Power Plant is more of the same from Gamma Ray, inarguably well done, but hard to differentiate from their many other albums in this particular metal style.

by Steve Huey, allmusic

Tracklist:

1. Anywhere In The Galaxy
2. Razorblade Sigh
3. Send Me A Sign
4. Strangers In The Night
5. Gardens Of The Sinner
6. Short As Hell
7. It’s A Sin
8. Heavy Metal Universe
9. Wings Of Destiny
10. Hand Of Fate
11. Armageddon
12. Long Live Rock ‘n’ Roll (Bonus track)

EAC Log
Exact Audio Copy V1.0 beta 1 from 15. November 2010

EAC extraction logfile from 30. March 2011, 8:02

Gamma Ray / Powerplant (Victor, VICP-60649, Japan)

Used drive : MATSHITADVD-RAM UJ890AS Adapter: 0 ID: 1

Read mode : Secure
Utilize accurate stream : Yes
Defeat audio cache : Yes
Make use of C2 pointers : No

Read offset correction : 102
Overread into Lead-In and Lead-Out : No
Fill up missing offset samples with silence : Yes
Delete leading and trailing silent blocks : No
Null samples used in CRC calculations : Yes
Used interface : Native Win32 interface for Win NT & 2000

Used output format : User Defined Encoder
Selected bitrate : 128 kBit/s
Quality : High
Add ID3 tag : No
Command line compressor : C:Program Files (x86)Exact Audio CopyFlacflac.exe
Additional command line options : -T "DATE=%y" -T "GENRE=%m" -8 -V %s

TOC of the extracted CD

Track | Start | Length | Start sector | End sector
––––––––––––––––––––––––––––-
1 | 0:00.37 | 6:36.62 | 37 | 29798
2 | 6:37.24 | 5:01.65 | 29799 | 52438
3 | 11:39.14 | 4:06.65 | 52439 | 70953
4 | 15:46.04 | 6:03.55 | 70954 | 98233
5 | 21:49.59 | 5:56.45 | 98234 | 124978
6 | 27:46.29 | 3:57.08 | 124979 | 142761
7 | 31:43.37 | 4:58.45 | 142762 | 165156
8 | 36:42.07 | 5:24.65 | 165157 | 189521
9 | 42:06.72 | 6:25.62 | 189522 | 218458
10 | 48:32.59 | 6:11.73 | 218459 | 246356
11 | 54:44.57 | 8:43.65 | 246357 | 285646
12 | 63:28.47 | 3:46.10 | 285647 | 302606

Range status and errors

Selected range

Filename C:Ripped By liveevilGamma Ray – Powerplant (Victor, VICP-60649, Japan).wav

Peak level 97.7 %
Extraction speed 0.0 X
Range quality 99.9 %
Test CRC 39214A70
Copy CRC 39214A70
Copy OK

No errors occurred

AccurateRip summary

Track 1 accurately ripped (confidence 4) [177F0CE4]
Track 2 accurately ripped (confidence 4) [9AC118E4]
Track 3 accurately ripped (confidence 4) [6F76EB1B]
Track 4 accurately ripped (confidence 4) [B75E03C0]
Track 5 accurately ripped (confidence 3) [6E03C0F1]
Track 6 accurately ripped (confidence 4) [05D2052A]
Track 7 accurately ripped (confidence 4) [42F824BA]
Track 8 accurately ripped (confidence 4) [76CD1B45]
Track 9 accurately ripped (confidence 4) [BFE1A63F]
Track 10 accurately ripped (confidence 4) [0D156287]
Track 11 accurately ripped (confidence 3) [987DF436]
Track 12 accurately ripped (confidence 3) [026B01C5]

All tracks accurately ripped

End of status report

==== Log checksum 1C1C7EFE878CF786549026CBDCE4E5F602CAAEA1B9538245AAEC095CDC82F8F8 ====

CUETools Log
[CUETools log; Date: 08.07.2017 16:07:45; Version: 2.1.4]
Pregap length 00:00:37.
[CTDB TOCID: calhrhOiFZ9CRMn6ceR_4SuSkJ0-] found.
Track | CTDB Status
1 | (29/30) Accurately ripped
2 | (30/30) Accurately ripped
3 | (30/30) Accurately ripped
4 | (29/30) Accurately ripped
5 | (29/30) Accurately ripped
6 | (29/30) Accurately ripped
7 | (29/30) Accurately ripped
8 | (30/30) Accurately ripped
9 | (30/30) Accurately ripped
10 | (30/30) Accurately ripped
11 | (27/30) Accurately ripped
12 | (28/30) Accurately ripped
[AccurateRip ID: 001d6729-01130750-a60fc20c] found.
Track [ CRC | V2 ] Status
01 [177f0ce4|bcf5cbde] (07+11/18) Accurately ripped
02 [9ac118e4|c5e33942] (08+11/19) Accurately ripped
03 [6f76eb1b|1d8d6e0c] (08+11/19) Accurately ripped
04 [b75e03c0|97b480ae] (08+11/19) Accurately ripped
05 [6e03c0f1|ce9d6c64] (07+11/18) Accurately ripped
06 [05d2052a|37874a88] (08+11/19) Accurately ripped
07 [42f824ba|98d958f0] (08+11/19) Accurately ripped
08 [76cd1b45|fc685333] (08+11/19) Accurately ripped
09 [bfe1a63f|c1bad47d] (08+11/19) Accurately ripped
10 [0d156287|d665b5a5] (07+11/18) Accurately ripped
11 [987df436|78cf4361] (06+11/17) Accurately ripped
12 [026b01c5|cbc1aa2a] (06+11/17) Accurately ripped
Offsetted by 294:
01 [d3acb29a] (00/18) No match (V2 was not tested)
02 [86d2d900] (00/19) No match (V2 was not tested)
03 [a600177d] (00/19) No match (V2 was not tested)
04 [c81b7669] (00/19) No match (V2 was not tested)
05 [e9f6da32] (00/18) No match (V2 was not tested)
06 [92c893b8] (00/19) No match (V2 was not tested)
07 [e35a0274] (00/19) No match
08 [d04edffb] (00/19) No match
09 [4364de35] (00/19) No match
10 [9a3f8b11] (00/18) No match
11 [57db30e8] (00/17) No match
12 [c34bde17] (00/17) No match

Track Peak [ CRC32 ] [W/O NULL] [ LOG ]
– 97,7 [39214A70] [EE0E796C] CRC32
01 93,3 [1C2F902D] [475DC36F]
02 93,3 [119D8F35] [7A7E2492]
03 97,7 [9AF0BA3D] [FA7E0B8B]
04 93,0 [282C41FD] [98463C04]
05 86,0 [B8D217D7] [AACB1984]
06 88,1 [450805A9] [EA07E36B]
07 94,4 [75E1472E] [DCB8A956]
08 88,0 [8ED91AA3] [68ABB581]
09 95,5 [D1B98802] [2EFBA43F]
10 88,1 [168B7FA8] [EC22406A]
11 96,6 [F115F95B] [99A8D087]
12 83,1 [603B19C2] [ED42A9BE]

* * * * *

Gamma Ray: 8 Japanese Edition CD (1995 - 2007)

CD05-06: Gamma Ray – Skeletons In The Closet (2003)
EAC | Flac(Image) + Cue + Log & MP3 CBR 320Kbps
Victor Entertainment, VICP-62419~20 | ~ 828 or 260 Mb | Scans(jpg) -> 100 Mb
Heavy / Power Metal

The members of Gamma Ray are caught in a timewarp, and if one is a die-hard fan of old-school ’70s and ’80s power metal, that isn’t necessarily a bad thing. Throughout the ’90s, the German headbangers offered no acknowledgment of post-’80s alternative metal trends – and when the early 2000s arrived, they were still partying like it was 1984. This live double-CD was recorded at concerts in Barcelona, Spain and Strasbourg, Germany during Gamma Ray’s European tour of 2002, but stylistically, Skeleton in the Closet might as well have been recorded 18 or 20 years earlier – the performances are right out the classic Iron Maiden/Judas Priest/Queensrÿche/King Diamond school of power metal, and Gamma Ray is totally oblivious to punk-influenced styles such as metalcore, grunge, death metal/black metal, grindcore, doom metal, stoner rock and rap-metal. But if Wynton Marsalis and the derivative Young Lions of hard bop and post-bop can be praised for their retro outlook, there is no reason why Gamma Ray should feel obligated to change with the metal times if they don’t want to – and judging from the roaring applause that one hears throughout Skeleton in the Closet, the headbangers’ European followers seem to agree that if it isn’t broke, don’t fix it. In fact, Kai "Helloween" Hansen and friends bring so much conviction and passion to these performances that one is glad to see them sticking with the type of aggressive yet melodic power metal that they do best. No one will accuse Gamma Ray of being the most groundbreaking or distinctive band in the world, but for those who never lost their love of old-school power metal, Skeleton in the Closet is an exciting, if predictable, document of the German metalheads on-stage in 2002.

by Alex Henderson, allmusic

Tracklist CD1:

1. Welcome
2. Gardens Of The Sinner
3. Rich And Famous
4. All Of The Damned
5. No Return
6. Armageddon
7. Heavy Metal Universe
8. One With The World
9. Dan’s Solo

EAC Log
Exact Audio Copy V1.0 beta 3 from 29. August 2011

EAC extraction logfile from 2. July 2017, 14:17

Gamma Ray / Skeletons In The Closet [VICP-62419]

Used drive : HP DVD Writer 640v Adapter: 3 ID: 2

Read mode : Secure
Utilize accurate stream : Yes
Defeat audio cache : Yes
Make use of C2 pointers : No

Read offset correction : 618
Overread into Lead-In and Lead-Out : No
Fill up missing offset samples with silence : Yes
Delete leading and trailing silent blocks : No
Null samples used in CRC calculations : Yes
Used interface : Installed external ASPI interface

Used output format : User Defined Encoder
Selected bitrate : 1024 kBit/s
Quality : High
Add ID3 tag : No
Command line compressor : C:Program Files (x86)Exact Audio CopyFlacflac.exe
Additional command line options : -V -8 -T "Date=%year%" -T "Genre=%genre%" %source%

TOC of the extracted CD

Track | Start | Length | Start sector | End sector
––––––––––––––––––––––––––––-
1 | 0:00.00 | 1:06.70 | 0 | 5019
2 | 1:06.70 | 5:47.52 | 5020 | 31096
3 | 6:54.47 | 5:12.53 | 31097 | 54549
4 | 12:07.25 | 5:00.25 | 54550 | 77074
5 | 17:07.50 | 4:13.00 | 77075 | 96049
6 | 21:20.50 | 9:23.57 | 96050 | 138331
7 | 30:44.32 | 7:42.63 | 138332 | 173044
8 | 38:27.20 | 4:50.07 | 173045 | 194801
9 | 43:17.27 | 5:19.68 | 194802 | 218794
10 | 51:09.20 | 15:44.53 | 230195 | 301047

Range status and errors

Selected range

Filename D:CDRip by BallcrusherGamma Ray – Skeletons In The Closet [VICP-62419].wav

Peak level 96.6 %
Extraction speed 2.2 X
Range quality 99.9 %
Test CRC C7FDF2B3
Copy CRC C7FDF2B3
Copy OK

No errors occurred

AccurateRip summary

Track 1 accurately ripped (confidence 2) [67CE270C] (AR v2)
Track 2 accurately ripped (confidence 2) [6FA80EE0] (AR v2)
Track 3 accurately ripped (confidence 2) [DAAFE75D] (AR v2)
Track 4 accurately ripped (confidence 2) [E0A60C65] (AR v2)
Track 5 accurately ripped (confidence 2) [C97A0DF6] (AR v2)
Track 6 accurately ripped (confidence 2) [47944D33] (AR v2)
Track 7 accurately ripped (confidence 2) [D9312EC3] (AR v2)
Track 8 accurately ripped (confidence 2) [5C2DB292] (AR v2)
Track 9 accurately ripped (confidence 2) [B3C11A2C] (AR v2)

All tracks accurately ripped

End of status report

==== Log checksum 336FD6A6BCC4A74D3CAE165E2A59BADB90735EDE7D72D52944D38E94F05A8543 ====

CUETools Log
[CUETools log; Date: 08.07.2017 15:58:18; Version: 2.1.4]
CD-Extra data track length 15:44:53.
[CTDB TOCID: ScJTZjvku8ZxU8KRnax9R4U78HE-] found.
Track | CTDB Status
1 | (8/8) Accurately ripped
2 | (8/8) Accurately ripped
3 | (7/8) Accurately ripped, or (1/8) differs in 1 samples @04:57:65
4 | (8/8) Accurately ripped
5 | (8/8) Accurately ripped
6 | (8/8) Accurately ripped
7 | (8/8) Accurately ripped
8 | (8/8) Accurately ripped
9 | (8/8) Accurately ripped
[AccurateRip ID: 001057ab-00802ae5-8b0fad0a] found.
Track [ CRC | V2 ] Status
01 [a373947f|67ce270c] (0+2/2) Accurately ripped
02 [c15eb7b1|6fa80ee0] (0+2/2) Accurately ripped
03 [5d73ad47|daafe75d] (0+2/2) Accurately ripped
04 [0f9dbedb|e0a60c65] (0+2/2) Accurately ripped
05 [f3cf23d3|c97a0df6] (0+2/2) Accurately ripped
06 [5ec66941|47944d33] (0+2/2) Accurately ripped
07 [1ed6a720|d9312ec3] (0+2/2) Accurately ripped
08 [5c1b24cd|5c2db292] (0+2/2) Accurately ripped
09 [ef3b595d|b3c11a2c] (0+2/2) Accurately ripped

Track Peak [ CRC32 ] [W/O NULL] [ LOG ]
– 96,6 [C7FDF2B3] [8B449CA4] CRC32
01 96,6 [E4C5ACD8] [C1A2929D]
02 96,6 [A1D44C08] [71BB7973]
03 96,6 [88D955CF] [898D20D0]
04 96,6 [3B71D511] [5CA50210]
05 96,6 [EADB629C] [B238A13F]
06 96,6 [424DC1B6] [89AC2B0F]
07 96,6 [E3682371] [37A249AD]
08 96,6 [F97F8A0A] [64F098F4]
09 96,6 [97A88C6A] [D339CB3F]

Tracklist CD2:

1. Razorblade Sigh
2. Heart Of The Unicorn
3. Last Before The Storm
4. Victim Of Fate
5. Rising Star / Shine On
6. The Silence
7. Heaven Or Hell
8. Guardians Of Mankind
9. New World Order
10. I Want Out (Bonus track)

EAC Log
Exact Audio Copy V1.0 beta 3 from 29. August 2011

EAC extraction logfile from 2. July 2017, 15:26

Gamma Ray / Skeletons In The Closet [VICP-62420]

Used drive : HP DVD Writer 640v Adapter: 3 ID: 2

Read mode : Secure
Utilize accurate stream : Yes
Defeat audio cache : Yes
Make use of C2 pointers : No

Read offset correction : 618
Overread into Lead-In and Lead-Out : No
Fill up missing offset samples with silence : Yes
Delete leading and trailing silent blocks : No
Null samples used in CRC calculations : Yes
Used interface : Installed external ASPI interface

Used output format : User Defined Encoder
Selected bitrate : 1024 kBit/s
Quality : High
Add ID3 tag : No
Command line compressor : C:Program Files (x86)Exact Audio CopyFlacflac.exe
Additional command line options : -V -8 -T "Date=%year%" -T "Genre=%genre%" %source%

TOC of the extracted CD

Track | Start | Length | Start sector | End sector
––––––––––––––––––––––––––––-
1 | 0:00.00 | 5:00.07 | 0 | 22506
2 | 5:00.07 | 4:41.73 | 22507 | 43654
3 | 9:42.05 | 4:38.45 | 43655 | 64549
4 | 14:20.50 | 7:00.35 | 64550 | 96084
5 | 21:21.10 | 7:52.27 | 96085 | 131511
6 | 29:13.37 | 6:44.03 | 131512 | 161814
7 | 35:57.40 | 4:16.22 | 161815 | 181036
8 | 40:13.62 | 5:21.50 | 181037 | 205161
9 | 45:35.37 | 8:22.63 | 205162 | 242874
10 | 53:58.25 | 7:17.47 | 242875 | 275696

Range status and errors

Selected range

Filename D:CDRip by BallcrusherGamma Ray – Skeletons In The Closet [VICP-62420].wav

Peak level 96.6 %
Extraction speed 2.2 X
Range quality 100.0 %
Test CRC DD0CA628
Copy CRC DD0CA628
Copy OK

No errors occurred

AccurateRip summary

Track 1 accurately ripped (confidence 2) [2621EE5F] (AR v2)
Track 2 accurately ripped (confidence 2) [3C600C6A] (AR v2)
Track 3 accurately ripped (confidence 2) [E7DD67F5] (AR v2)
Track 4 accurately ripped (confidence 2) [B7F7D7DA] (AR v2)
Track 5 accurately ripped (confidence 2) [AB0B344C] (AR v2)
Track 6 accurately ripped (confidence 2) [94D611F7] (AR v2)
Track 7 accurately ripped (confidence 2) [27C67A72] (AR v2)
Track 8 accurately ripped (confidence 2) [1F1E76F8] (AR v2)
Track 9 accurately ripped (confidence 2) [DADE3ACA] (AR v2)
Track 10 accurately ripped (confidence 2) [A9A21A7C] (AR v2)

All tracks accurately ripped

End of status report

==== Log checksum 7EF3538E1A280D130F05E373375E1DE1BCC49013DAC83D3B85BC77B80EFE65A7 ====

CUETools Log
[CUETools log; Date: 08.07.2017 15:58:33; Version: 2.1.4]
[CTDB TOCID: UxK9BmHBKxuWh01gSNixmi.4hzI-] found.
Track | CTDB Status
1 | (8/8) Accurately ripped
2 | (8/8) Accurately ripped
3 | (8/8) Accurately ripped
4 | (7/8) Accurately ripped, or (1/8) differs in 1 samples @06:18:49
5 | (8/8) Accurately ripped
6 | (8/8) Accurately ripped
7 | (8/8) Accurately ripped
8 | (8/8) Accurately ripped
9 | (7/8) Accurately ripped, or (1/8) differs in 1 samples @00:53:05
10 | (8/8) Accurately ripped
[AccurateRip ID: 0015bdff-00b0e369-810e5b0a] found.
Track [ CRC | V2 ] Status
01 [07c4c99a|2621ee5f] (0+2/2) Accurately ripped
02 [32815f81|3c600c6a] (0+2/2) Accurately ripped
03 [332f68f0|e7dd67f5] (0+2/2) Accurately ripped
04 [8da317ab|b7f7d7da] (0+2/2) Accurately ripped
05 [ed4ba9f5|ab0b344c] (0+2/2) Accurately ripped
06 [2f55d022|94d611f7] (0+2/2) Accurately ripped
07 [37502165|27c67a72] (0+2/2) Accurately ripped
08 [ddd24110|1f1e76f8] (0+2/2) Accurately ripped
09 [d0f2bfb9|dade3aca] (0+2/2) Accurately ripped
10 [fd73d05f|a9a21a7c] (0+2/2) Accurately ripped

Track Peak [ CRC32 ] [W/O NULL] [ LOG ]
– 96,6 [DD0CA628] [6F6070E4] CRC32
01 96,6 [9ACE97F5] [D3E621A4]
02 96,6 [773C9D4B] [73221692]
03 96,6 [000056C8] [4D11B45D]
04 96,6 [79BFCEC4] [B2400443]
05 96,6 [6F754BAA] [B785696F]
06 96,6 [E2EDBC2C] [9F62488E]
07 96,6 [B71351A6] [101864FE]
08 96,6 [E4D96E00] [3BE9C8AA]
09 96,6 [10B9E311] [2B095D7B]
10 96,6 [3E32ED44] [32DD625B]

* * * * *

Gamma Ray: 8 Japanese Edition CD (1995 - 2007)

CD07: Gamma Ray – Majestic (2005)
EAC | Flac(Image) + Cue + Log & MP3 CBR 320Kbps
Victor Entertainment, VICP-63135 | ~ 472 or 141 Mb | Scans(jpg) -> 56 Mb
Heavy / Power Metal

If Gamma Ray’s rousing power metal sounds a little dated in 2005, well, it is. But with metal’s ever-increasing hybridization, it’s almost comforting to hear a band standing so proudly outside that fusionist circle. Majestic changes little from 2001’s No World Order, or the albums before that. This is power metal through and through, with Kai Hansen’s high-pitched wail leading his band at a double bass gallop through songs about Hell, spiritual dictators, and dark destinies. Opener "My Temple" features some great rapid-fire sections alongside a chorus intoning, "Evil comes, evil’s done," and "Hell Is Thy Home" – besides its terrifically antiquated title – features lines like "Into oblivion you take their lives." Hansen, of course, pronounces it "lyyy-EEEEVes!" This isn’t to poke fun at Gamma Ray. Yes, their lyrics seem torn from fantasy literature. Yes, they’re posed with a hairy, cloaked nether-beast in Majestic’s liner notes. But it’s refreshing to hear and see this, because it gives the music a classicist feel. "Blood Religion," for example, begins as a righteous dirge before switching into a Judas Priest strut. At the four-minute mark everything suddenly drops out; the scary choir is back to stoically sing the song’s title, and a tempo change sets up the flailing solos that fill its final minutes. You can’t ask for power metal more committed than this in 2005, when bands are either too busy layering wordless screams over chunky hardcore riffs or playing a game of "having a laugh or aren’t we?" like the Darkness. With Majestic Gamma Ray prove that, even in their excess, they are nothing but genuine.

by Johnny Loftus, allmusic

Tracklist:

1. My Temple
2. Fight
3. Strange World
4. Hell Is Thy Home
5. Blood Religion
6. Condemned To Hell
7. Spiritual Dictator
8. Majesty
9. How Long
10. Revelation
11. Hellfire (Bonus track)

EAC Log
Exact Audio Copy V1.3 from 2. September 2016

EAC extraction logfile from 17. June 2017, 12:39

Gamma Ray / Majestic

Used drive : ATAPI iHAS122 W Adapter: 2 ID: 0

Read mode : Secure
Utilize accurate stream : Yes
Defeat audio cache : Yes
Make use of C2 pointers : No

Read offset correction : 48
Overread into Lead-In and Lead-Out : No
Fill up missing offset samples with silence : Yes
Delete leading and trailing silent blocks : No
Null samples used in CRC calculations : Yes
Used interface : Installed external ASPI interface

Used output format : User Defined Encoder
Selected bitrate : 1024 kBit/s
Quality : High
Add ID3 tag : No
Command line compressor : C:Program FilesFLACflac.exe
Additional command line options : -V -8 -T "Date=%year%" -T "Genre=%genre%" -T"COMMENT=Ripped by Ilijan – ilko" -8 -V %source%

TOC of the extracted CD

Track | Start | Length | Start sector | End sector
––––––––––––––––––––––––––––-
1 | 0:00.00 | 4:56.38 | 0 | 22237
2 | 4:56.38 | 3:25.32 | 22238 | 37644
3 | 8:21.70 | 5:03.25 | 37645 | 60394
4 | 13:25.20 | 4:46.13 | 60395 | 81857
5 | 18:11.33 | 6:55.35 | 81858 | 113017
6 | 25:06.68 | 4:56.35 | 113018 | 135252
7 | 30:03.28 | 5:41.12 | 135253 | 160839
8 | 35:44.40 | 6:25.73 | 160840 | 189787
9 | 42:10.38 | 4:06.55 | 189788 | 208292
10 | 46:17.18 | 8:35.62 | 208293 | 246979
11 | 54:53.05 | 4:37.43 | 246980 | 267797

Range status and errors

Selected range

Filename D:ilkoGamma Ray – Majestic.wav

Peak level 96.2 %
Extraction speed 3.9 X
Range quality 99.9 %
Test CRC ECABA3AA
Copy CRC ECABA3AA
Copy OK

No errors occurred

AccurateRip summary

Track 1 accurately ripped (confidence 3) [F91F2BD7] (AR v2)
Track 2 accurately ripped (confidence 3) [6E4E32A6] (AR v2)
Track 3 accurately ripped (confidence 3) [1BAC4C55] (AR v2)
Track 4 accurately ripped (confidence 3) [F6482410] (AR v2)
Track 5 accurately ripped (confidence 3) [6B8A6B76] (AR v2)
Track 6 accurately ripped (confidence 3) [46DFC9FF] (AR v2)
Track 7 accurately ripped (confidence 3) [4B174C18] (AR v2)
Track 8 accurately ripped (confidence 3) [29F043D0] (AR v2)
Track 9 accurately ripped (confidence 3) [69DA6F26] (AR v2)
Track 10 accurately ripped (confidence 3) [228F657F] (AR v2)
Track 11 accurately ripped (confidence 3) [9D3C8FC2] (AR v2)

All tracks accurately ripped

End of status report

–– CUETools DB Plugin V2.1.6

[CTDB TOCID: WrZiLxW0dAH7pxhk8Ni3ZVMqaGg-] found
Submit result: WrZiLxW0dAH7pxhk8Ni3ZVMqaGg- has been confirmed
Track | CTDB Status
1 | (29/29) Accurately ripped
2 | (29/29) Accurately ripped
3 | (29/29) Accurately ripped
4 | (29/29) Accurately ripped
5 | (29/29) Accurately ripped
6 | (29/29) Accurately ripped
7 | (29/29) Accurately ripped
8 | (29/29) Accurately ripped
9 | (29/29) Accurately ripped
10 | (29/29) Accurately ripped
11 | (29/29) Accurately ripped

==== Log checksum 3DD8DB9844DB93C0B0DF84E71F52A758FE7FFE17A88F7D2275BACF87BF17CB31 ====

CUETools Log
[CUETools log; Date: 08.07.2017 16:09:38; Version: 2.1.4]
[CTDB TOCID: WrZiLxW0dAH7pxhk8Ni3ZVMqaGg-] found.
Track | CTDB Status
1 | (30/30) Accurately ripped
2 | (30/30) Accurately ripped
3 | (30/30) Accurately ripped
4 | (30/30) Accurately ripped
5 | (30/30) Accurately ripped
6 | (30/30) Accurately ripped
7 | (30/30) Accurately ripped
8 | (30/30) Accurately ripped
9 | (30/30) Accurately ripped
10 | (30/30) Accurately ripped
11 | (30/30) Accurately ripped
[AccurateRip ID: 0017418a-00cd18eb-9a0df20b] found.
Track [ CRC | V2 ] Status
01 [f47ec206|f91f2bd7] (00+03/13) Accurately ripped
02 [1cccd897|6e4e32a6] (00+03/13) Accurately ripped
03 [d0fcdc1a|1bac4c55] (00+03/13) Accurately ripped
04 [0ecddb04|f6482410] (00+03/13) Accurately ripped
05 [46c33bb9|6b8a6b76] (00+03/13) Accurately ripped
06 [8b42940e|46dfc9ff] (00+03/13) Accurately ripped
07 [3fb6403d|4b174c18] (00+03/13) Accurately ripped
08 [0d68fa73|29f043d0] (00+03/13) Accurately ripped
09 [0fa977d8|69da6f26] (00+03/13) Accurately ripped
10 [1f77a226|228f657f] (00+03/13) Accurately ripped
11 [d9eab496|9d3c8fc2] (00+03/12) Accurately ripped
Offsetted by -71:
01 [77e049c7] (03/13) Accurately ripped
02 [743532e8] (03/13) Accurately ripped
03 [aa761135] (03/13) Accurately ripped
04 [9ea5c4e2] (03/13) Accurately ripped
05 [dc2d7896] (03/13) Accurately ripped
06 [b17c9aa8] (03/13) Accurately ripped
07 [3573a5c7] (03/13) Accurately ripped
08 [d14618be] (03/13) Accurately ripped
09 [44e3a307] (03/13) Accurately ripped
10 [5ded07c4] (03/13) Accurately ripped
11 [31d5a93b] (03/12) Accurately ripped
Offsetted by -65:
01 [d1bb337d] (00/13) No match (V2 was not tested)
02 [d56276fe] (00/13) No match (V2 was not tested)
03 [d56101e7] (00/13) No match (V2 was not tested)
04 [138d0789] (00/13) No match (V2 was not tested)
05 [a0112735] (00/13) No match (V2 was not tested)
06 [13ff6bfd] (00/13) No match (V2 was not tested)
07 [7636ab62] (00/13) No match (V2 was not tested)
08 [fe048990] (00/13) No match (V2 was not tested)
09 [e2a507f1] (00/13) No match (V2 was not tested)
10 [ab93c918] (00/13) No match (V2 was not tested)
11 [deafc709] (00/12) No match (V2 was not tested)

Track Peak [ CRC32 ] [W/O NULL] [ LOG ]
– 96,2 [ECABA3AA] [4BE75E9D] CRC32
01 96,2 [416251C0] [4E2B40D0]
02 96,2 [BCA051B1] [B2693708]
03 96,2 [A9D6D046] [B780EABF]
04 96,2 [F6C7A320] [BD7B942D]
05 96,2 [AD2DF023] [0F8A3164]
06 96,2 [06934F96] [B7CF2723]
07 96,2 [CFC5E388] [F643ECA6]
08 96,2 [F962C17D] [0B8B37BF]
09 96,2 [6B68FE2B] [F19DAAE0]
10 96,2 [F0E197F5] [9AB6FB39]
11 96,2 [D1C2BBB2] [AFA2800F]

* * * * *

Gamma Ray: 8 Japanese Edition CD (1995 - 2007)

CD08: Gamma Ray – Land Of The Free II (2007)
EAC | Flac(Image) + Cue + Log & MP3 CBR 320Kbps
Victor Entertainment, VICP-63989 | ~ 549 or 173 Mb | Scans(jpg) -> 119 Mb
Heavy / Power Metal

Given the way Gamma Ray have remained stubbornly committed to ’70s/’80s-style power metal, one would think that all of the people attending their concerts in the 21st century would be people over 40. But in fact, Gamma Ray acquired a lot of new fans in the ’90s and 2000s – people in the Gen-X and Gen-Y/Echo Boomer demographics – and those post-’80s converts have really connected with their old-school approach regardless of how dated it sounds. Actually, the fact that this 2007 release sounds like it could have been recorded 25 years earlier might be a big part of its appeal to children and grandchildren of baby boomers. Someone who was 18 or 19 in 2007 wasn’t old enough to remember the heyday of Judas Priest, Iron Maiden, Ronnie James Dio or Queensrÿche – hell, 2007’s college freshmen weren’t old enough to remember when Nirvana and Pearl Jam set off the grunge/alternative rock explosion in the early ’90s – and artists who stick to old-school power metal give them a chance to experience something from an era that they missed. Of course, there is nothing wrong with sounding dated if you are good at what you do; quality, not whether artists sound modern or old-fashioned, is the main thing, and Land of the Free II is clearly a solid example of the classic power metal sound. Gamma Ray do not alter their musical recipe one bit on this 65-minute CD; they remain firmly committed to that old-school Judas Priest/Iron Maiden/Queensrÿche/Helloween aesthetic, which means larger than life lyrics, soaring melodies and choruses, and a big dose of fantasy and escapism. Land of the Free II is not about keeping it real; it is about keeping it in the fantasy realm, and Gamma Ray do that with plenty of passion on this enjoyable, well-crafted addition to their

by Alex Henderson, allmusic

Tracklist:

1. Into The Storm
2. From The Ashes
3. Rising Again
4. To Mother Earth
5. Rain
6. Leaving Hell
7. Empress
8. When The World
9. Opportunity
10. Real World
11. Hear Me Calling
12. Insurrection
13. Blood Religion (Live in Montreal) (Bonus track)
Лог создания рипа

EAC Log
Exact Audio Copy V1.0 beta 3 from 29. August 2011

EAC extraction logfile from 13. October 2014, 11:39

Gamma Ray / Land Of The Free II

Used drive : Optiarc DVD RW AD-7203A Adapter: 3 ID: 1

Read mode : Secure
Utilize accurate stream : Yes
Defeat audio cache : Yes
Make use of C2 pointers : No

Read offset correction : 48
Overread into Lead-In and Lead-Out : No
Fill up missing offset samples with silence : Yes
Delete leading and trailing silent blocks : No
Null samples used in CRC calculations : Yes
Used interface : Native Win32 interface for Win NT & 2000

Used output format : User Defined Encoder
Selected bitrate : 768 kBit/s
Quality : High
Add ID3 tag : No
Command line compressor : C:Program Files (x86)Exact Audio CopyFLACFLAC.EXE
Additional command line options : -6 -V -T "ARTIST=%artist%" -T "TITLE=%title%" -T "ALBUM=%albumtitle%" -T "DATE=%year%" -T "TRACKNUMBER=%tracknr%" -T "GENRE=%genre%" -T "COMMENT=%comment%" -T "BAND=%albuminterpret%" -T "ALBUMARTIST=%albuminterpret%" -T "COMPOSER=%composer%" %haslyrics%–tag-from-file=LYRICS="%lyricsfile%"%haslyrics% -T "DISCNUMBER=%cdnumber%" -T "TOTALDISCS=%totalcds%" -T "TOTALTRACKS=%numtracks%" %hascover%–picture="%coverfile%"%hascover% %source% -o %dest%

TOC of the extracted CD

Track | Start | Length | Start sector | End sector
––––––––––––––––––––––––––––-
1 | 0:00.00 | 3:47.47 | 0 | 17071
2 | 3:47.47 | 5:25.59 | 17072 | 41505
3 | 9:13.31 | 0:27.29 | 41506 | 43559
4 | 9:40.60 | 5:10.44 | 43560 | 66853
5 | 14:51.29 | 5:16.22 | 66854 | 90575
6 | 20:07.51 | 4:19.59 | 90576 | 110059
7 | 24:27.35 | 6:22.18 | 110060 | 138727
8 | 30:49.53 | 5:44.00 | 138728 | 164527
9 | 36:33.53 | 7:14.08 | 164528 | 197085
10 | 43:47.61 | 5:41.17 | 197086 | 222677
11 | 49:29.03 | 4:14.07 | 222678 | 241734
12 | 53:43.10 | 11:33.09 | 241735 | 293718
13 | 65:16.19 | 8:11.22 | 293719 | 330565

Range status and errors

Selected range

Filename C:subrr_for_rutracker2007 – Land Of The Free II [2007, Victor, VICP-63989, Japan]Gamma Ray – Land Of The Free II.wav

Peak level 98.8 %
Extraction speed 4.6 X
Range quality 100.0 %
Test CRC 758E75E6
Copy CRC 758E75E6
Copy OK

No errors occurred

AccurateRip summary

Track 1 accurately ripped (confidence 4) [E1F68A9D] (AR v2)
Track 2 accurately ripped (confidence 4) [943A6AC5] (AR v2)
Track 3 accurately ripped (confidence 4) [3EF19898] (AR v2)
Track 4 accurately ripped (confidence 4) [DE6B1654] (AR v2)
Track 5 accurately ripped (confidence 4) [F05BB72E] (AR v2)
Track 6 accurately ripped (confidence 4) [C08B00E2] (AR v2)
Track 7 accurately ripped (confidence 4) [89DC982D] (AR v2)
Track 8 accurately ripped (confidence 4) [A0242933] (AR v2)
Track 9 accurately ripped (confidence 4) [3925922F] (AR v2)
Track 10 accurately ripped (confidence 4) [395D883C] (AR v2)
Track 11 accurately ripped (confidence 4) [25A86CC2] (AR v2)
Track 12 accurately ripped (confidence 4) [7B9C70B6] (AR v2)
Track 13 accurately ripped (confidence 4) [8733FF85] (AR v2)

All tracks accurately ripped

End of status report

==== Log checksum FE2607C5B4EF8BD1B75C7079F9C23C9322CAD03A7BE4C2CEE9D668FA7567B82B ====

CUETools Log
[CUETools log; Date: 08.07.2017 16:10:12; Version: 2.1.4]
[CTDB TOCID: RuOUbavx78akug11XMtBjrV9vuk-] found.
Track | CTDB Status
1 | (26/26) Accurately ripped
2 | (26/26) Accurately ripped
3 | (26/26) Accurately ripped
4 | (26/26) Accurately ripped
5 | (26/26) Accurately ripped
6 | (26/26) Accurately ripped
7 | (26/26) Accurately ripped
8 | (26/26) Accurately ripped
9 | (26/26) Accurately ripped
10 | (26/26) Accurately ripped
11 | (26/26) Accurately ripped
12 | (26/26) Accurately ripped
13 | (26/26) Accurately ripped
[AccurateRip ID: 001de30c-0136595a-c811370d] found.
Track [ CRC | V2 ] Status
01 [0d1acc93|e1f68a9d] (05+06/11) Accurately ripped
02 [5313f650|943a6ac5] (05+06/11) Accurately ripped
03 [5b0eceae|3ef19898] (06+06/12) Accurately ripped
04 [b548ef92|de6b1654] (06+06/12) Accurately ripped
05 [85a2f819|f05bb72e] (06+06/12) Accurately ripped
06 [0e42cedd|c08b00e2] (06+06/12) Accurately ripped
07 [f515c999|89dc982d] (06+06/12) Accurately ripped
08 [0c63de37|a0242933] (06+06/12) Accurately ripped
09 [f7264fdb|3925922f] (06+06/12) Accurately ripped
10 [971348bb|395d883c] (06+07/13) Accurately ripped
11 [e7d5f367|25a86cc2] (06+07/13) Accurately ripped
12 [9f9071f1|7b9c70b6] (06+07/13) Accurately ripped
13 [13b4eb2e|8733ff85] (06+07/13) Accurately ripped

Track Peak [ CRC32 ] [W/O NULL] [ LOG ]
– 98,8 [758E75E6] [86683A88] CRC32
01 88,1 [801A668E] [E13D3165]
02 92,2 [F0466674] [79E39AD7]
03 96,5 [B6F7E330] [29B29ADF]
04 96,5 [A8E0D238] [F51CADA6]
05 98,8 [F680FD30] [5D555572]
06 97,8 [B5682768] [99FE19A8]
07 98,8 [19D9BA15] [EEF788AE]
08 98,8 [2F3AF5CF] [D6EEDD4F]
09 98,8 [306F7164] [4C26795B]
10 98,8 [F9C0AF06] [D7D806CA]
11 98,8 [BC39FA65] [8D868042]
12 98,8 [44C6A3F8] [D73EA06D]
13 94,3 [584E8CDF] [B092D5FD]

* * *

All thanks go to Ginger Devil, ilko, Hellixxx, liveevil, Sergey_155 & subrr

Gamma Ray in my Blog

Download Gamma Ray: 8 Japanese Edition CD (1995 – 2007):

Gamma Ray: 8 Japanese Edition CD (1995 – 2007) Download, Warez, DDL, Free, Full Album, Torrent, Legal.

Download