Gabriel Yared & VA – The English Patient: Original Soundtrack Recording (1996) [Re-Up]

Download
Gabriel Yared & VA - The English Patient: Original Soundtrack Recording (1996) [Re-Up]

Gabriel Yared & VA – The English Patient: Original Soundtrack Recording (1996)
Academy Of St. Martin In The Fields, conducted by Harry Rabinowitz

EAC | APE (Image) + cue.+log ~ 321 Mb | Mp3, CBR320 kbps ~ 177 Mb | Scans included
Soundtrack, Score, Big Band, Vocal Jazz | Label: Polydor | # 537 325-2 | 01:15:11

The English Patient is the original soundtrack of the 1996 Academy Award- and Golden Globe-winning film The English Patient starring Ralph Fiennes, Kristin Scott Thomas, Willem Dafoe, Juliette Binoche (who won the Academy Award for Best Supporting Actress for her role as "Hana" in this film) and Colin Firth. The original score and songs were composed by Gabriel Yared. The album won the four major soundtrack awards: the Academy Award (Best Dramatic Score), the Golden Globe (Best Original Score), the BAFTA Award (Best Film Music) and the Grammy Award (Best Instrumental Composition Written for a Motion Picture or for Television).

Anthony Minghella’s Oscar-winning realization of Michael Ondaatje’s intricate romance deservedly earned comparisons to David Lean’s sweeping screen epics derived from strong literary sources. Like Lean, Minghella sought an equally thoughtful, yet ravishing musical counterpart that fleshes out a sympathetic orchestral score with allusions to the story’s cultural milieu. The equation begins with Gabriel Yared’s tender, brooding symphonic score, which mingles the film’s poles of fate and passion with subtlety and restraint, then adds the exotic, mesmerizing voice of Marta Sebestyen (best known for her work with Muzsikas, the brilliant Hungarian folk revivalists, who also appear here), whose presence provides a literate clue to the title character’s true identity. The film’s ’40s time-frame gains resonance and dramatic irony by pop songs from that era, including Benny Goodman swing classics and two versions of Irving Berlin’s "Cheek to Cheek" (by Fred Astaire and Ella Fitzgerald, respectively). Add a pivotal Bach cue and this is a film package that works even if you don’t know the film–and that much more powerfully if you do.

Review by Sam Sutherland

Gabriel Yared & VA - The English Patient: Original Soundtrack Recording (1996) [Re-Up]

~ Gabriel Yared at Allmusic
~ Gabriel Yared Website
~ Gabriel Yared at Wiki

~ Film at IMDB
~ Film at Wiki

Academy Of St. Martin In The Fields
conducted by Harry Rabinowitz

Tracklist:

01. The English Patient (03:37)
02. A Retreat (01:26)
03. Rupert Bear (01:26)
04. What Else Do You Love? (01:06)
05. Why Picton? (01:08)
06. Cheek to Cheek (03:16) – Fred Astaire
07. Kip’s Lights (01:28)
08. Hana’s Curse (02:10)
09. I’ll Always Go Back to That Church (01:51)
10. Black Nights (01:56)
11. Swoon, I’ll Catch You (01:51)
12. Am I K. in Your Book? (01:00)
13. Let Me Come In! (02:39)
14. Wang Wang Blues (02:49) – Benny Goodman
15. Convento Di Sant’Anna (09:09)
16. Herodotus (01:08)
17. Szerelem, szerelem (04:35) – Márta Sebestyén
18. Ask Your Saint Who He’s Killed (01:09)
19. One O’Clock Jump (03:14) – Benny Goodman
20. I’ll Be Back (04:02)
21. Let Me Tell You About Winds (01:00)
22. Read Me to Sleep (04:59)
23. The Cave of Swimmers (01:59)
24. Where or When (02:16)
25. J.S. BACH – Aria from The Goldberg Variations (03:02) – Julie Steinberg
26. Cheek to Cheek (03:45) – Ella Fitzgerald
27. As Far as Florence (05:12)
28. Én Czak Azt Csodálom (Lullaby for Katharine) (01:11)

EAC log
EAC extraction logfile from 30. August 2007, 13:37 for CD
Gabriel Yared / The English Patient

Used drive : LITE-ON DVDRW SOHW-1633S Adapter: 2 ID: 0
Read mode : Secure with NO C2, accurate stream, disable cache
Read offset correction : 12
Overread into Lead-In and Lead-Out : No

Used output format : C:Programaseac-0.95b4-cdrdaoMAC.exe (Monkey’s Audio Lossless Encoder)
Normal Lossless Compression

Other options :
Fill up missing offset samples with silence : Yes
Delete leading and trailing silent blocks : No
Installed external ASPI interface

Range status and errors
Selected range
Filename E:My_Music@EACGabriel Yared – The English PatientGabriel Yared – The English Patient.wav

Peak level 100.0 %
Range quality 100.0 %
CRC A766C6F8
Copy OK

No errors occured

End of status report

CUE Tools log
[CUETools log; Date: 31.07.2017 2:10:02; Version: 2.1.4]
[CTDB TOCID: Bh0eeputmAHxRrbh1bmqly9CNME-] found.
Track | CTDB Status
1 | (79/81) Accurately ripped
2 | (78/81) Accurately ripped
3 | (79/81) Accurately ripped
4 | (79/81) Accurately ripped
5 | (79/81) Accurately ripped
6 | (79/81) Accurately ripped
7 | (79/81) Accurately ripped
8 | (79/81) Accurately ripped
9 | (79/81) Accurately ripped
10 | (79/81) Accurately ripped
11 | (78/81) Accurately ripped
12 | (78/81) Accurately ripped
13 | (78/81) Accurately ripped
14 | (77/81) Accurately ripped
15 | (77/81) Accurately ripped
16 | (79/81) Accurately ripped
17 | (78/81) Accurately ripped
18 | (78/81) Accurately ripped
19 | (78/81) Accurately ripped
20 | (79/81) Accurately ripped
21 | (79/81) Accurately ripped
22 | (78/81) Accurately ripped
23 | (79/81) Accurately ripped
24 | (79/81) Accurately ripped
25 | (78/81) Accurately ripped
26 | (78/81) Accurately ripped
27 | (77/81) Accurately ripped
28 | (76/81) Accurately ripped
[AccurateRip ID: 00439724-057555b4-a8119f1c] found.
Track [ CRC | V2 ] Status
01 [5573ae66|6bdfb324] (35+32/70) Accurately ripped
02 [50e72f7d|06f992a8] (35+32/70) Accurately ripped
03 [8bfdd116|27e496f0] (35+31/69) Accurately ripped
04 [b3f3429b|573e9c75] (35+31/69) Accurately ripped
05 [150f5141|29ada629] (35+32/70) Accurately ripped
06 [49f40b89|e436ade8] (35+32/70) Accurately ripped
07 [6f3fdc33|5787b284] (35+32/70) Accurately ripped
08 [0bcc7d67|cbbb66fc] (35+31/69) Accurately ripped
09 [b0ae406a|7f9c9f8a] (35+32/70) Accurately ripped
10 [5cd731d0|e2655d44] (35+31/69) Accurately ripped
11 [88c6dbe6|6a336100] (35+31/69) Accurately ripped
12 [23be6c5a|420ab052] (35+32/70) Accurately ripped
13 [1d999d72|670eaedc] (35+32/70) Accurately ripped
14 [20272474|230b11e1] (35+32/69) Accurately ripped
15 [da655406|ab402b50] (33+31/66) Accurately ripped
16 [80c5e270|e3955871] (34+32/69) Accurately ripped
17 [5bd6186d|b4f2ee86] (34+32/68) Accurately ripped
18 [85ad7e9a|8975cda1] (35+32/69) Accurately ripped
19 [c2bc63a9|13fd8bb0] (34+32/68) Accurately ripped
20 [1b0619cf|19edc753] (33+31/66) Accurately ripped
21 [95be31a1|146ad51b] (35+32/70) Accurately ripped
22 [10bda9dc|1a482f8e] (34+31/67) Accurately ripped
23 [eebdd097|bdb097fb] (35+30/67) Accurately ripped
24 [4f9cb89d|97e5c186] (34+31/67) Accurately ripped
25 [76c5435c|054488cc] (34+31/67) Accurately ripped
26 [3c915a99|79cd834d] (33+32/68) Accurately ripped
27 [9c3fd7ff|ff2aafa2] (32+31/65) Accurately ripped
28 [49572c58|781f24b5] (34+31/68) Accurately ripped
Offsetted by -1328:
01 [49ff566a] (00/70) No match (V2 was not tested)
02 [c779ec94] (00/70) No match (V2 was not tested)
03 [226c9cd9] (00/69) No match (V2 was not tested)
04 [7429024a] (00/69) No match (V2 was not tested)
05 [301cf188] (00/70) No match (V2 was not tested)
06 [69e10206] (00/70) No match (V2 was not tested)
07 [8ecb7e66] (00/70) No match (V2 was not tested)
08 [1d2d5938] (00/69) No match (V2 was not tested)
09 [b18004c5] (00/70) No match (V2 was not tested)
10 [cf345e90] (00/69) No match (V2 was not tested)
11 [55d38072] (00/69) No match (V2 was not tested)
12 [d94923e4] (00/70) No match (V2 was not tested)
13 [49d89a3f] (00/70) No match (V2 was not tested)
14 [c08b109d] (00/69) No match (V2 was not tested)
15 [649281b6] (00/66) No match (V2 was not tested)
16 [bf685d20] (00/69) No match (V2 was not tested)
17 [17b4c1cd] (00/68) No match (V2 was not tested)
18 [4b5824d4] (00/69) No match (V2 was not tested)
19 [3bdd4f97] (00/68) No match (V2 was not tested)
20 [68c823f6] (00/66) No match (V2 was not tested)
21 [90227344] (00/70) No match (V2 was not tested)
22 [6458f6bf] (00/67) No match (V2 was not tested)
23 [17ce7f23] (00/67) No match (V2 was not tested)
24 [ea9cc488] (00/67) No match (V2 was not tested)
25 [e2d0543c] (00/67) No match (V2 was not tested)
26 [9d9867c9] (00/68) No match (V2 was not tested)
27 [20d64c05] (00/65) No match (V2 was not tested)
28 [08fd0b91] (00/68) No match (V2 was not tested)

Track Peak [ CRC32 ] [W/O NULL] [ LOG ]
– 100,0 [A766C6F8] [F0B012C2] CRC32
01 69,9 [9E539087] [344316CD]
02 58,3 [F6E4BD8D] [3BBF0A63]
03 80,3 [9FB04C54] [68BA0CA2]
04 52,8 [EA52D868] [E5DC9184]
05 63,4 [2ACC40E8] [24B22588]
06 99,9 [F6392624] [366151C3]
07 98,8 [7EA67A3A] [5959D9B0]
08 86,2 [BA297D7A] [E2E131B1]
09 69,8 [E9B73309] [0EC034E5]
10 42,5 [716109B1] [D50846BF]
11 95,7 [204E873C] [6F71B5C9]
12 49,5 [B0550B71] [D2103936]
13 84,2 [BD9B6725] [878B0F26]
14 99,9 [20DB291B] [1EF5FD25]
15 72,9 [A2ECED81] [AE54A3DA]
16 100,0 [984B8A5F] [86135B4A]
17 43,1 [6E5C5C8E] [3628FE6B]
18 37,7 [A6D97BF4] [F69E272E]
19 72,2 [9D5329C8] [9D2CA520]
20 76,6 [7B44CA5E] [454166B3]
21 90,0 [9FD6621B] [ACC6C1AF]
22 92,3 [5E29F6B5] [FC650A89]
23 92,9 [08CBD811] [BE3000C5]
24 92,8 [A946902B] [E436B6C0]
25 48,0 [67524ACA] [F4485D07]
26 99,9 [1E8A1E73] [A30450E4]
27 84,1 [A5FF3F1A] [3B8DADC5]
28 24,3 [60A6601B] [3CFE3D71]

DR log
foobar2000 1.2 / Dynamic Range Meter 1.1.1
log date: 2014-04-08 15:17:59

––––––––––––––––––––––––––––––––––––––––
Analyzed: Benny Goodman / The English Patient (1-2)
Ella Fitzgerald / The English Patient (3)
––––––––––––––––––––––––––––––––––––––––

DR Peak RMS Duration Track
––––––––––––––––––––––––––––––––––––––––
DR12 -0.01 dB -15.06 dB 2:53 14-Wang Wang Blues
DR13 -2.82 dB -17.75 dB 3:16 19-One O’Clock Jump
DR12 -0.01 dB -14.89 dB 3:47 26-Cheek to Cheek
––––––––––––––––––––––––––––––––––––––––

Number of tracks: 3
Official DR value: DR12

Samplerate: 44100 Hz
Channels: 2
Bits per sample: 16
Bitrate: 587 kbps
Codec: Monkey’s Audio
================================================================================

––––––––––––––––––––––––––––––––––––––––
Statistics for: 06-Cheek to Cheek
Number of samples: 8825880
Duration: 3:20
––––––––––––––––––––––––––––––––––––––––

Left Right

Peak Value: 0.00 dB –- 0.00 dB
Avg RMS: -15.12 dB –- -15.00 dB
DR channel: 12.55 dB –- 12.44 dB
––––––––––––––––––––––––––––––––––––––––

Official DR Value: DR12

Samplerate: 44100 Hz
Channels: 2
Bits per sample: 16
Bitrate: 587 kbps
Codec: Monkey’s Audio
================================================================================
––––––––––––––––––––––––––––––––––––––––
Analyzed: Gabriel Yared / The English Patient
––––––––––––––––––––––––––––––––––––––––

DR Peak RMS Duration Track
––––––––––––––––––––––––––––––––––––––––
DR10 -3.11 dB -18.26 dB 3:37 01-The English Patient
DR10 -4.68 dB -19.91 dB 1:26 02-A Retreat
DR10 -1.90 dB -18.00 dB 1:27 03-Rupert Bear
DR12 -5.53 dB -21.81 dB 1:06 04-What Else Do You Love?
DR10 -3.95 dB -19.78 dB 1:09 05-Why Picton?
DR10 -0.10 dB -16.32 dB 1:30 07-Kip’s Lights
DR11 -1.29 dB -17.54 dB 2:11 08-Hana’s Curse
DR11 -3.11 dB -18.73 dB 1:54 09-I’ll Always Go Back to That Church
DR11 -7.42 dB -22.20 dB 1:57 10-Black Nights
DR10 -0.38 dB -17.02 dB 1:53 11-Swoon, I’ll Catch You
DR7 -6.10 dB -19.55 dB 1:00 12-Am I K. in Your Book?
DR13 -1.49 dB -20.98 dB 2:40 13-Let Me Come In!
DR13 -2.74 dB -20.75 dB 9:12 15-Convento Di Sant’Anna
DR9 0.00 dB -14.72 dB 1:12 16-Herodotus
DR8 -8.46 dB -23.69 dB 1:10 18-Ask Your Saint Who He’s Killed
DR10 -2.31 dB -16.93 dB 4:03 20-I’ll Be Back
DR8 -0.91 dB -15.14 dB 1:01 21-Let Me Tell You About Winds
DR12 -0.69 dB -18.70 dB 5:02 22-Read Me to Sleep
DR10 -0.63 dB -15.80 dB 2:01 23-The Cave of Swimmers
DR11 -0.65 dB -15.54 dB 2:19 24-Where or When
DR11 -1.50 dB -16.37 dB 5:12 27-As Far as Florence
DR9 -12.27 dB -26.71 dB 1:12 28-En Csak Azt Csodalom (Lullaby for Katharine)
––––––––––––––––––––––––––––––––––––––––

Number of tracks: 22
Official DR value: DR10

Samplerate: 44100 Hz
Channels: 2
Bits per sample: 16
Bitrate: 587 kbps
Codec: Monkey’s Audio
================================================================================

––––––––––––––––––––––––––––––––––––––––
Statistics for: 25-J.S. BACH – Aria from The Goldberg Variations
Number of samples: 8140860
Duration: 3:05
––––––––––––––––––––––––––––––––––––––––

Left Right

Peak Value: -7.83 dB –- -6.36 dB
Avg RMS: -22.79 dB –- -21.90 dB
DR channel: 11.27 dB –- 11.91 dB
––––––––––––––––––––––––––––––––––––––––

Official DR Value: DR12

Samplerate: 44100 Hz
Channels: 2
Bits per sample: 16
Bitrate: 587 kbps
Codec: Monkey’s Audio
================================================================================
––––––––––––––––––––––––––––––––––––––––
Statistics for: 17-Szerelem, szerelem
Number of samples: 12201000
Duration: 4:37
––––––––––––––––––––––––––––––––––––––––

Left Right

Peak Value: -7.29 dB –- -8.07 dB
Avg RMS: -19.83 dB –- -20.86 dB
DR channel: 9.20 dB –- 9.78 dB
––––––––––––––––––––––––––––––––––––––––

Official DR Value: DR9

Samplerate: 44100 Hz
Channels: 2
Bits per sample: 16
Bitrate: 587 kbps
Codec: Monkey’s Audio
================================================================================

Gabriel Yared & VA - The English Patient: Original Soundtrack Recording (1996) [Re-Up]

All thanks to original uploader

More Movies & Soundtracks in Efgrapha Blog

Gabriel Yared – Message in a Bottle: Original Motion Picture Score (1999)

Gabriel Yared & VA – The English Patient: Original Soundtrack Recording (1996) [Re-Up] Download, Warez, DDL, Free, Full Album, Torrent, Legal.

Download