Gabor Szabo – Gypsy '66 (1965) {2005 Impulse! Japan Jazz The Best Series 24bit Remaster UCCU-5271}

Download
Gabor Szabo - Gypsy '66 (1965) {2005 Impulse! Japan Jazz The Best Series 24bit Remaster UCCU-5271}

Gabor Szabo – Gypsy ’66 (1965) {2005 Impulse! Japan Jazz The Best Series 24bit Remaster UCCU-5271}
EAC rip (secure mode) | FLAC (tracks)+CUE+LOG -> 192 Mb | MP3 @320 -> 81 Mb
Full Artwork @ 600 dpi (jpg) -> 147 Mb | 5% repair rar
© 1965, 2005 Impulse! / Verve / Universal Music Japan | UCCU-5271 | 24bit mastering
Jazz / Cool / Contemporary Jazz / Guitar

Guitarist Gabor Szabo’s debut as a leader (after an important stint with the Chico Hamilton Quintet) is surprisingly successful. The reason this LP is a bit of a surprise is that the repertoire (in addition to two originals apiece by the leader and Gary McFarland) has a few unlikely songs by the Beatles ("Yesterday" and "If I Fell") and Burt Bacharach (including "Walk On By"). Usually jazz adaptations of rock songs in the 1960s are lightweight, but Szabo’s original sound, the unusual instrumentation (two or three guitars, Sadao Watanabe on flute, Gary McFarland on marimba, bass, drums and percussion) and McFarland’s clever arrangements uplift the music. The playing time at 35 minutes is a bit brief, but the performances are better than expected.

Gabor Szabo - Gypsy '66 (1965) {2005 Impulse! Japan Jazz The Best Series 24bit Remaster UCCU-5271}

Personnel:
Gábor Szabó – guitar
Gary McFarland – marimba
Barry Galbraith – guitar
Sadao Watanabe – flute
Grady Tate – drums
Al Stinson – bass
Willie Rodriguez — percussion
Sam Brown – guitar
Richard Davis – bass
Francisco Pozo – percussion

Gabor Szabo - Gypsy '66 (1965) {2005 Impulse! Japan Jazz The Best Series 24bit Remaster UCCU-5271}

tracklist:
01 – Yesterday
02 – The Last One To Be Loved
03 – The Echo Of Love
04 – Gypsy ’66
05 – Flea Market
06 – Walk On By
07 – If I Feel
08 – Gypsy Jam
09 – I’m All Smiles

EAC log
Exact Audio Copy V1.1 from 23. June 2015

EAC extraction logfile from 13. February 2017, 17:28

Gabor Szabo / Gypsy ’66

Used drive : TSSTcorpCDDVDW SE-208DB Adapter: 1 ID: 1

Read mode : Secure
Utilize accurate stream : Yes
Defeat audio cache : Yes
Make use of C2 pointers : No

Read offset correction : 6
Overread into Lead-In and Lead-Out : No
Fill up missing offset samples with silence : Yes
Delete leading and trailing silent blocks : No
Null samples used in CRC calculations : Yes
Used interface : Native Win32 interface for Win NT & 2000
Gap handling : Appended to previous track

Used output format : User Defined Encoder
Selected bitrate : 1024 kBit/s
Quality : High
Add ID3 tag : No
Command line compressor : C:Program Files (x86)FLAC Frontendtoolsflac.exe
Additional command line options : -8 -V -T "ARTIST=%artist%" -T "TITLE=%title%" -T "ALBUM=%albumtitle%" -T "DATE=%year%" -T "TRACKNUMBER=%tracknr%" -T "TOTALTRACKS=%numtracks%" -T "GENRE=%genre%" -T "ALBUMARTIST=%albumartist%" -T "ALBUM ARTIST=%albumartist%" -T "COMMENT=EAC Secure Mode, Test & Copy, AccurateRip, FLAC -8" %source%

TOC of the extracted CD

Track | Start | Length | Start sector | End sector
––––––––––––––––––––––––––––-
1 | 0:00.00 | 2:31.00 | 0 | 11324
2 | 2:31.00 | 3:43.12 | 11325 | 28061
3 | 6:14.12 | 4:18.63 | 28062 | 47474
4 | 10:33.00 | 7:02.62 | 47475 | 79186
5 | 17:35.62 | 2:51.25 | 79187 | 92036
6 | 20:27.12 | 2:52.63 | 92037 | 104999
7 | 23:20.00 | 3:21.62 | 105000 | 120136
8 | 26:41.62 | 5:01.13 | 120137 | 142724
9 | 31:43.00 | 2:52.62 | 142725 | 155686

Track 1

Filename D:_EACGabor Szabo – Gypsy ’66 (1965) [FLAC] {Impulse! Japan UCCU-5271}1 – Yesterday.wav

Pre-gap length 0:00:02.00

Peak level 89.6 %
Extraction speed 1.0 X
Track quality 100.0 %
Test CRC 21E9D8D4
Copy CRC 21E9D8D4
Accurately ripped (confidence 3) [72038FB2] (AR v2)
Copy OK

Track 2

Filename D:_EACGabor Szabo – Gypsy ’66 (1965) [FLAC] {Impulse! Japan UCCU-5271}2 – The Last One To Be Loved.wav

Peak level 78.5 %
Extraction speed 1.1 X
Track quality 100.0 %
Test CRC CBA6B713
Copy CRC CBA6B713
Accurately ripped (confidence 3) [3A1D4575] (AR v2)
Copy OK

Track 3

Filename D:_EACGabor Szabo – Gypsy ’66 (1965) [FLAC] {Impulse! Japan UCCU-5271}3 – The Echo Of Love.wav

Peak level 88.0 %
Extraction speed 1.2 X
Track quality 100.0 %
Test CRC DD19A93E
Copy CRC DD19A93E
Accurately ripped (confidence 3) [B9BFF249] (AR v2)
Copy OK

Track 4

Filename D:_EACGabor Szabo – Gypsy ’66 (1965) [FLAC] {Impulse! Japan UCCU-5271}4 – Gypsy ’66.wav

Peak level 85.2 %
Extraction speed 1.4 X
Track quality 100.0 %
Test CRC 8AFFE548
Copy CRC 8AFFE548
Accurately ripped (confidence 3) [6E218B87] (AR v2)
Copy OK

Track 5

Filename D:_EACGabor Szabo – Gypsy ’66 (1965) [FLAC] {Impulse! Japan UCCU-5271}5 – Flea Market.wav

Peak level 93.5 %
Extraction speed 1.1 X
Track quality 99.9 %
Test CRC 1CFF2A89
Copy CRC 1CFF2A89
Accurately ripped (confidence 3) [9EE246BA] (AR v2)
Copy OK

Track 6

Filename D:_EACGabor Szabo – Gypsy ’66 (1965) [FLAC] {Impulse! Japan UCCU-5271}6 – Walk On By.wav

Peak level 93.6 %
Extraction speed 1.4 X
Track quality 100.0 %
Test CRC 62AB5BDF
Copy CRC 62AB5BDF
Accurately ripped (confidence 3) [6DAB540D] (AR v2)
Copy OK

Track 7

Filename D:_EACGabor Szabo – Gypsy ’66 (1965) [FLAC] {Impulse! Japan UCCU-5271}7 – If I Feel.wav

Peak level 84.4 %
Extraction speed 1.2 X
Track quality 99.9 %
Test CRC 0E456F3F
Copy CRC 0E456F3F
Accurately ripped (confidence 3) [EC4B0DC9] (AR v2)
Copy OK

Track 8

Filename D:_EACGabor Szabo – Gypsy ’66 (1965) [FLAC] {Impulse! Japan UCCU-5271}8 – Gypsy Jam.wav

Peak level 92.4 %
Extraction speed 1.6 X
Track quality 100.0 %
Test CRC 73E2203A
Copy CRC 73E2203A
Accurately ripped (confidence 3) [C898B670] (AR v2)
Copy OK

Track 9

Filename D:_EACGabor Szabo – Gypsy ’66 (1965) [FLAC] {Impulse! Japan UCCU-5271}9 – I’m All Smiles.wav

Peak level 96.2 %
Extraction speed 1.5 X
Track quality 100.0 %
Test CRC 96443252
Copy CRC 96443252
Accurately ripped (confidence 3) [FBD5595B] (AR v2)
Copy OK

All tracks accurately ripped

No errors occurred

End of status report

–– CUETools DB Plugin V2.1.6

[CTDB TOCID: rnGDl89W5rb3.405Xf3p1M.ayy8-] found
Submit result: rnGDl89W5rb3.405Xf3p1M.ayy8- has been confirmed
Track | CTDB Status
1 | (13/13) Accurately ripped
2 | (13/13) Accurately ripped
3 | (13/13) Accurately ripped
4 | (13/13) Accurately ripped
5 | (13/13) Accurately ripped
6 | (13/13) Accurately ripped
7 | (13/13) Accurately ripped
8 | (13/13) Accurately ripped
9 | (13/13) Accurately ripped

==== Log checksum BC64BE855744AAAAC2ECD2103266C1EE957EA4DA563A82025CF7C00E7EBD43CE ====

Gabor Szabo - Gypsy '66 (1965) {2005 Impulse! Japan Jazz The Best Series 24bit Remaster UCCU-5271}

Gabor Szabo - Gypsy '66 (1965) {2005 Impulse! Japan Jazz The Best Series 24bit Remaster UCCU-5271}

thanks 0xxa for the help…

===

Gabor Szabo – Gypsy '66 (1965) {2005 Impulse! Japan Jazz The Best Series 24bit Remaster UCCU-5271} Download, Warez, DDL, Free, Full Album, Torrent, Legal.

Download