Frog Pocket – 2 Albums (2003-2005)

Download
Frog Pocket - 2 Albums (2003-2005)

Frog Pocket – 2 Albums (2003-2005)
EAC Rip | FLAC (image+.cue+log) – 558 MB | MP3 CBR 320 kbps (LAME 3.93) – 221 MB | Covers – 67 MB
Genre: IDM, Downtempo, Experimental | RAR 3% Rec. | Label: Benbecula Records, Planet Mu Records

Frog Pocket is John Charles Wilson from Ayr (Ayrshire, Scotland). He has been active and prolific within the scottish scene since 1996. Mouthmoth, his own small record label, is surely the best in Scotland for weird and oblique electronic music. Frog Pocket’s music is truly personal and innovative, and with the passing of time his unique "broken beats" technique has reached the state of the art. John defines his music as "splatterbeat folk". This description may sound strange but it’s probably the most appropriate. The key to most of his tunes is juxtaposition, where gritty complex and fascinating percussive beds are placed against lyrical musical lines. Beautiful guitar melodies and ambient textures fill his tracks and a fiddle also appears each now and then bringing in the joy and sadness of traditional scottish music.

Frog Pocket - 2 Albums (2003-2005)

Frog Pocket – Moon Mountain Of The Fords (2003)
EAC Rip | FLAC (image+.cue+log) – 203 MB | MP3 CBR 320 kbps (LAME 3.93) – 82 MB | Covers – 22 MB
Genre: IDM, Downtempo, Experimental | RAR 3% Rec. | Label: Benbecula Records (ben024cd)

Tracklist:
01. Jupiter Lady Mountain Village
02. Oh, The Places You’ll Go!
03. Always Never (Dumfries + Galloway Mix)
04. Omulad
05. Mountain Village Jupiter Lady
06. My Mentle Ass
07. Hey Hope

Total time: 35:07

EAC log
Exact Audio Copy V0.99 prebeta 5 from 4. May 2009

EAC extraction logfile from 6. July 2010, 4:29

Frog Pocket / Moon Mountain Of The Fords

Used drive : Optiarc DVD RW AD-7240S Adapter: 0 ID: 2

Read mode : Secure
Utilize accurate stream : Yes
Defeat audio cache : Yes
Make use of C2 pointers : No

Read offset correction : 48
Overread into Lead-In and Lead-Out : No
Fill up missing offset samples with silence : Yes
Delete leading and trailing silent blocks : No
Null samples used in CRC calculations : Yes
Used interface : Installed external ASPI interface

Used output format : User Defined Encoder
Selected bitrate : 1024 kBit/s
Quality : High
Add ID3 tag : No
Command line compressor : C:Program FilesExact Audio CopyFLACFLAC.EXE
Additional command line options : -8 -V -T "ARTIST=%a" -T "TITLE=%t" -T "ALBUM=%g" -T "DATE=%y" -T "TRACKNUMBER=%n" -T "GENRE=%m" -T "COMMENT=%e" %s -o %d

TOC of the extracted CD

Track | Start | Length | Start sector | End sector
––––––––––––––––––––––––––––-
1 | 0:00.00 | 3:13.64 | 0 | 14538
2 | 3:13.64 | 6:29.09 | 14539 | 43722
3 | 9:42.73 | 5:55.12 | 43723 | 70359
4 | 15:38.10 | 5:37.18 | 70360 | 95652
5 | 21:15.28 | 2:40.25 | 95653 | 107677
6 | 23:55.53 | 6:05.36 | 107678 | 135088
7 | 30:01.14 | 5:05.55 | 135089 | 158018

Range status and errors

Selected range

Filename L:_EAC_RippedFrog Pocket – Moon Mountain Of The Fords.wav

Peak level 100.0 %
Range quality 99.9 %
Test CRC FCCCFE21
Copy CRC FCCCFE21
Copy OK

No errors occurred

AccurateRip summary

Track 1 not present in database
Track 2 not present in database
Track 3 not present in database
Track 4 not present in database
Track 5 not present in database
Track 6 not present in database
Track 7 not present in database

None of the tracks are present in the AccurateRip database

End of status report

CUETools log
[CUETools log; Date: 27.07.2017 10:42:47; Version: 2.1.4]
[CTDB TOCID: U9JV.pGM1Yksuot8DlARycF8DUA-] found.
Track | CTDB Status
1 | (2/2) Accurately ripped
2 | (2/2) Accurately ripped
3 | (2/2) Accurately ripped
4 | (2/2) Accurately ripped
5 | (2/2) Accurately ripped
6 | (2/2) Accurately ripped
7 | (2/2) Accurately ripped
[AccurateRip ID: 000989a5-00399d34-5b083a07] found.
Track [ CRC | V2 ] Status
01 [4451f5e1|804e6a95] (2+2/4) Accurately ripped
02 [1cd9d546|565742d4] (2+2/4) Accurately ripped
03 [bd8ab6bd|5fb7bc1b] (2+2/4) Accurately ripped
04 [daa90cbd|3883ae2d] (2+2/4) Accurately ripped
05 [961a3e64|8bfbf7d6] (2+2/4) Accurately ripped
06 [9b3f97a8|d453e52b] (2+2/4) Accurately ripped
07 [f881fb39|47f56b3a] (2+2/4) Accurately ripped

Track Peak [ CRC32 ] [W/O NULL] [ LOG ]
– 100,0 [FCCCFE21] [B6648C93] CRC32
01 54,2 [4F6F65F2] [7D6CA23D]
02 81,9 [24C913EF] [B09142D7]
03 99,9 [D6A3C534] [335A1EB5]
04 100,0 [4AC6BE1F] [9C8137D4]
05 55,5 [0D46C65B] [952FA578]
06 99,9 [37E4CDD8] [75702E94]
07 100,0 [22258A79] [B66C2F1D]

Frog Pocket - 2 Albums (2003-2005)

Frog Pocket – Gonglot (2005)
EAC Rip | FLAC (image+.cue+log) – 355 MB | MP3 CBR 320 kbps (LAME 3.93) – 139 MB | Covers – 45 MB
Genre: IDM, Downtempo, Experimental | RAR 3% Rec. | Label: Planet Mu Records (ZIQ097CD)

Tracklist:
01. Follow Erol Raet
02. Carac Cyls
03. Oben
04. Plinty
05. Hurrah Sapphire Moon!
06. Eye Beby Y Ben II
07. Eyewarm
08. Celebrimbor Tur-Anion
09. Fetlar
10. Baral Orgen 2
11. Vaedre
12. Sea Angel Lament

Total time: 59:15

EAC log
Exact Audio Copy V1.0 beta 3 from 29. August 2011

EAC extraction logfile from 18. November 2012, 0:04

Frog Pocket / Gonglot

Used drive : Optiarc DVD RW AD-7240S Adapter: 4 ID: 0

Read mode : Secure
Utilize accurate stream : Yes
Defeat audio cache : Yes
Make use of C2 pointers : No

Read offset correction : 48
Overread into Lead-In and Lead-Out : No
Fill up missing offset samples with silence : Yes
Delete leading and trailing silent blocks : No
Null samples used in CRC calculations : Yes
Used interface : Native Win32 interface for Win NT & 2000

Used output format : User Defined Encoder
Selected bitrate : 1024 kBit/s
Quality : High
Add ID3 tag : No
Command line compressor : C:Program Files (x86)Exact Audio CopyFlacflac.exe
Additional command line options : -8 -V -T "ARTIST=%artist%" -T "TITLE=%title%" -T "ALBUM=%albumtitle%" -T "DATE=%year%" -T "TRACKNUMBER=%tracknr%" -T "GENRE=%genre%" -T "COMMENT=%comment%" %source% -o %dest%

TOC of the extracted CD

Track | Start | Length | Start sector | End sector
––––––––––––––––––––––––––––-
1 | 0:00.00 | 2:21.38 | 0 | 10612
2 | 2:21.38 | 8:27.35 | 10613 | 48672
3 | 10:48.73 | 3:32.31 | 48673 | 64603
4 | 14:21.29 | 2:31.31 | 64604 | 75959
5 | 16:52.60 | 6:15.48 | 75960 | 104132
6 | 23:08.33 | 8:28.72 | 104133 | 142304
7 | 31:37.30 | 3:28.20 | 142305 | 157924
8 | 35:05.50 | 5:43.20 | 157925 | 183669
9 | 40:48.70 | 2:16.24 | 183670 | 193893
10 | 43:05.19 | 3:41.64 | 193894 | 210532
11 | 46:47.08 | 9:36.53 | 210533 | 253785
12 | 56:23.61 | 2:51.17 | 253786 | 266627

Range status and errors

Selected range

Filename R:_EAC_RippedFrog Pocket – Gonglot.wav

Peak level 100.0 %
Extraction speed 4.0 X
Range quality 99.9 %
Test CRC 3DD97035
Copy CRC 3DD97035
Copy OK

No errors occurred

AccurateRip summary

Track 1 accurately ripped (confidence 6) [8A312AA0] (AR v1)
Track 2 accurately ripped (confidence 6) [738BA402] (AR v1)
Track 3 accurately ripped (confidence 6) [F36713E2] (AR v1)
Track 4 accurately ripped (confidence 6) [EAAC6FA1] (AR v1)
Track 5 accurately ripped (confidence 6) [A506C745] (AR v1)
Track 6 accurately ripped (confidence 6) [BDF3D2DA] (AR v1)
Track 7 accurately ripped (confidence 6) [564AF33D] (AR v1)
Track 8 accurately ripped (confidence 6) [FC1E55A0] (AR v1)
Track 9 accurately ripped (confidence 6) [8D852287] (AR v1)
Track 10 accurately ripped (confidence 6) [DE38DEA4] (AR v1)
Track 11 accurately ripped (confidence 6) [6A65C993] (AR v1)
Track 12 accurately ripped (confidence 6) [7C8CE460] (AR v1)

All tracks accurately ripped

End of status report

==== Log checksum 36420E4319B99BF107178255250E655F7303DFE05E599363789745393AD8F08C ====

CUETools log
[CUETools log; Date: 27.07.2017 10:43:13; Version: 2.1.4]
[CTDB TOCID: IlVIIQbvrfN5UWxY5LriCHfUdUs-] found.
Track | CTDB Status
1 | (2/2) Accurately ripped
2 | (2/2) Accurately ripped
3 | (2/2) Accurately ripped
4 | (2/2) Accurately ripped
5 | (2/2) Accurately ripped
6 | (2/2) Accurately ripped
7 | (2/2) Accurately ripped
8 | (2/2) Accurately ripped
9 | (2/2) Accurately ripped
10 | (2/2) Accurately ripped
11 | (2/2) Accurately ripped
12 | (2/2) Accurately ripped
[AccurateRip ID: 001a2254-00f5cea8-a50de30c] found.
Track [ CRC | V2 ] Status
01 [8a312aa0|9466fc65] (6+3/9) Accurately ripped
02 [738ba402|05cb5d4c] (6+3/9) Accurately ripped
03 [f36713e2|021e14ed] (6+3/9) Accurately ripped
04 [eaac6fa1|35152d7d] (6+3/9) Accurately ripped
05 [a506c745|df23de5f] (6+3/9) Accurately ripped
06 [bdf3d2da|6b7b9604] (6+3/9) Accurately ripped
07 [564af33d|dfd2b8b9] (6+3/9) Accurately ripped
08 [fc1e55a0|57e06f90] (6+3/9) Accurately ripped
09 [8d852287|846e3669] (6+3/9) Accurately ripped
10 [de38dea4|04ab4081] (6+3/9) Accurately ripped
11 [6a65c993|ddc318d5] (6+3/9) Accurately ripped
12 [7c8ce460|6c37d088] (6+3/9) Accurately ripped

Track Peak [ CRC32 ] [W/O NULL] [ LOG ]
– 100,0 [3DD97035] [627D63D8] CRC32
01 57,4 [00F5C104] [9FD6B74A]
02 100,0 [E8ED4838] [25E2960C]
03 100,0 [F8466631] [2DB10AE0]
04 100,0 [515986FB] [EC52BF28]
05 100,0 [04B4EEEC] [BD94CB37]
06 100,0 [F5A315F8] [56D7E53C]
07 100,0 [445C9EA6] [266E2406]
08 100,0 [9B6B814A] [EF04E409]
09 52,4 [DA67C79C] [BBDA47C8]
10 100,0 [D34DCDDB] [CC192522]
11 100,0 [284823DB] [1F3ED9D0]
12 28,5 [5F61C896] [A274FBFA]

Thanks to EPSmuz

Welcome to My Blog!

Frog Pocket – 2 Albums (2003-2005) Download, Warez, DDL, Free, Full Album, Torrent, Legal.

Download