Frode Haltli – Air (2016)

Download
Frode Haltli - Air (2016)

Frode Haltli – Air
Classical | FLAC (tracks)+cue, front cover | 44:50 min | 144 MB
Label: ECM New Series | Tracks: 06 | Rls.date: 2016

The innovative Norwegian accordionist Frode Haltli is heard here with chamber orchestra, with string quartet and solo, performing music written for him by Danish composers Bent Sørensen and Hans Abrahamsen. Sørensen, he notes, has been an influence on his development as a player, challenging perceptions of what can be achieved on the accordion through tone control and nuances in soft dynamics, a subject explored in detail on It is Pain Flowing Down Softly on a White Wall, where Haltli is heard with the Trondheim Soloists. Hans Abrahamsen’s Three Little Nocturnes find the accordionist in the company of the redoubtable Arditti Quartet. For the title composition Air, Hans Abrahamsen returned, at Frode Haltli’s suggestion, to the early solo work Canzona, reworking until it became a new piece “characterized by a great sense of peace and a cohesive form”.

TRACKLIST
1. It is pain flowing down slowly on a white wall
2. Air
3. Three little nocturnes – andante amabile
4. allegro appasionato
5. Langsam gehend
6. Sigrids Wiegenlied

EAC Log
Exact Audio Copy V1.1 from 23. June 2015

EAC extraction logfile from 27. January 2017, 19:21

Frode Haltli / Air

Used drive : TSSTcorpCDDVDW SH-224FB Adapter: 1 ID: 0

Read mode : Secure
Utilize accurate stream : Yes
Defeat audio cache : Yes
Make use of C2 pointers : No

Read offset correction : 6
Overread into Lead-In and Lead-Out : No
Fill up missing offset samples with silence : Yes
Delete leading and trailing silent blocks : No
Null samples used in CRC calculations : Yes
Used interface : Native Win32 interface for Win NT & 2000
Gap handling : Appended to previous track

Used output format : User Defined Encoder
Selected bitrate : 128 kBit/s
Quality : High
Add ID3 tag : No
Command line compressor : C:Program Files (x86)Exact Audio CopyFlacflac.exe
Additional command line options : -8 -V -T "ARTIST=%artist%" -T "TITLE=%title%" -T "ALBUM=%albumtitle%" -T "DATE=%year%" -T "TRACKNUMBER=%tracknr%" -T "TOTALTRACKS=%numtracks%" -T "GENRE=%genre%" -T "ALBUMARTIST=%albumartist%" -T "ALBUM ARTIST=%albumartist%" -T "COMMENT=EAC Secure Mode, Test & Copy, AccurateRip, FLAC -8" %source%

TOC of the extracted CD

Track | Start | Length | Start sector | End sector
––––––––––––––––––––––––––––-
1 | 0:00.00 | 21:30.08 | 0 | 96757
2 | 21:30.08 | 11:03.10 | 96758 | 146492
3 | 32:33.18 | 2:23.63 | 146493 | 157280
4 | 34:57.06 | 2:36.33 | 157281 | 169013
5 | 37:33.39 | 3:51.04 | 169014 | 186342
6 | 41:24.43 | 3:27.52 | 186343 | 201919

Track 1

Filename H:MY RIPS1 – It Is Pain Flowing Down Slowly On A White Wall.wav

Pre-gap length 0:00:02.00

Peak level 91.6 %
Extraction speed 2.3 X
Track quality 99.9 %
Test CRC B2B8B562
Copy CRC B2B8B562
Accurately ripped (confidence 1) [1D56AD6D] (AR v2)
Copy OK

Track 2

Filename H:MY RIPS2 – Air.wav

Peak level 44.7 %
Extraction speed 2.9 X
Track quality 100.0 %
Test CRC 1353C79B
Copy CRC 1353C79B
Accurately ripped (confidence 1) [25F789D0] (AR v2)
Copy OK

Track 3

Filename H:MY RIPS3 – Three Little Nocturnes, I. Andante amabile.wav

Peak level 19.3 %
Extraction speed 2.6 X
Track quality 100.0 %
Test CRC 3FBCEF8B
Copy CRC 3FBCEF8B
Accurately ripped (confidence 1) [08540B5C] (AR v2)
Copy OK

Track 4

Filename H:MY RIPS4 – Three Little Nocturnes, II. Allegro appassionato.wav

Peak level 85.7 %
Extraction speed 2.8 X
Track quality 100.0 %
Test CRC E08AD173
Copy CRC E08AD173
Accurately ripped (confidence 1) [08F464EF] (AR v2)
Copy OK

Track 5

Filename H:MY RIPS5 – Three Little Nocturnes, III. Langsam gehend.wav

Peak level 28.3 %
Extraction speed 2.3 X
Track quality 99.9 %
Test CRC 7A03F703
Copy CRC 7A03F703
Accurately ripped (confidence 1) [7ED4A64C] (AR v2)
Copy OK

Track 6

Filename H:MY RIPS6 – Sigrid’s Lullaby.wav

Peak level 15.8 %
Extraction speed 3.1 X
Track quality 100.0 %
Test CRC D5DBF9CE
Copy CRC D5DBF9CE
Accurately ripped (confidence 1) [4A389B06] (AR v2)
Copy OK

All tracks accurately ripped

No errors occurred

End of status report

–– CUETools DB Plugin V2.1.6

[CTDB TOCID: OkahBVslpsYutS.9KIhIBCUuYu8-] found
Submit result: OkahBVslpsYutS.9KIhIBCUuYu8- has been confirmed
Track | CTDB Status
1 | (4/4) Accurately ripped
2 | (4/4) Accurately ripped
3 | (4/4) Accurately ripped
4 | (4/4) Accurately ripped
5 | (4/4) Accurately ripped
6 | (4/4) Accurately ripped

==== Log checksum B774D250110720951BC5CB0A66C31BF957DE1224A57B85F480EFFF60D073EBF6 ====

Thanks to the Original customer.

Frode Haltli – Air (2016) Download, Warez, DDL, Free, Full Album, Torrent, Legal.

Download