Free Salamander Exhibit – Undestroyed (2016)

Download
Free Salamander Exhibit - Undestroyed (2016)

Free Salamander Exhibit – Undestroyed (2016)
EAC Rip | FLAC (image+.cue+log) – 328 MB | MP3 CBR 320 kbps (LAME 3.93) – 118 MB | Covers – 123 MB
Genre: Avant-Prog, Avantgarde Metal | RAR 3% Rec. | Label: Web Of Mimicry (WOM051)

Free Salamander Exhibit is a 5-piece progressive band comprising members of the now defunct art rockers Sleepytime Gorilla Museum. Employing a variety of homemade instruments in addition to guitars, bass, and drums, Free Salamander Exhibit doles out barbed rhythms, pungent harmonies, and itchy textures that are somewhat softened by occasionally lyrical and even joyful interludes. With lyrics exploring the slippery passage of time, the fantastical visions of Joyce, and the prison musings of Leonard Peltier, Free Salamander Exhibit delivers a thought-provoking, cathartic experience for the eyes, ears and mind.

Progarchives

Tracklist:
01. Unreliable Narrator
02. The Keep
03. The Gift
04. Time Master
05. Undestroyed
06. Atheists’ Potluck
07. Oxen Of The Sun

Total time: 50:24

EAC log
Exact Audio Copy V1.1 from 23. June 2015

Отчёт EAC об извлечении, выполненном 8. февраля 2017, 15:21

FREE SALAMANDER EXHIBIT / Undestroyed

Дисковод: TSSTcorpCDDVDW SH-224DB Adapter: 1 ID: 1

Режим чтения : Достоверность
Использование точного потока : Да
Отключение кэша аудио : Да
Использование указателей C2 : Нет

Коррекция смещения при чтении : 6
Способность читать области Lead-in и Lead-out : Нет
Заполнение пропущенных сэмплов тишиной : Да
Удаление блоков с тишиной в начале и конце : Нет
При вычислениях CRC использовались нулевые сэмплы : Да
Интерфейс : Встроенный Win32-интерфейс для Win NT/2000

Выходной формат : Внутренние WAV-операции
Формат сэмплов : 44.100 Гц; 16 бит; стерео

TOC извлечённого CD

Трек | Старт | Длительность | Начальный сектор | Конечный сектор
––––––––––––––––––––––––––––––––––-
1 | 0:00.00 | 5:23.37 | 0 | 24261
2 | 5:23.37 | 5:42.24 | 24262 | 49935
3 | 11:05.61 | 9:56.29 | 49936 | 94664
4 | 21:02.15 | 5:21.19 | 94665 | 118758
5 | 26:23.34 | 10:11.71 | 118759 | 164654
6 | 36:35.30 | 4:28.40 | 164655 | 184794
7 | 41:03.70 | 9:20.06 | 184795 | 226800

Характеристики диапазона извлечения и сообщения об ошибках

Выбранный диапазон

Имя файла D:TEMPFREE SALAMANDER EXHIBIT – 2016 – Undestroyed [Web of Mimicry, WOM051].wav

Пиковый уровень 94.4 %
Скорость извлечения 5.1 X
Качество диапазона 100.0 %
CRC теста 6259B29D
CRC копии 6259B29D
Копирование… OK

Ошибок не произошло

AccurateRip: сводка

Трек 1 отсутствует в базе данных
Трек 2 отсутствует в базе данных
Трек 3 отсутствует в базе данных
Трек 4 отсутствует в базе данных
Трек 5 отсутствует в базе данных
Трек 6 отсутствует в базе данных
Трек 7 отсутствует в базе данных

Ни одного трека нет в базе AccurateRip

Конец отчёта

==== Контрольная сумма отчёта AA40385DAD86A6D392019F04DB78C8C034DC9176969932FA3B01B2DA5A953B98 ====

CUETools log
[CUETools log; Date: 08.02.2017 23:45:54; Version: 2.1.4]
[CTDB TOCID: pr42mgrw7j_jkRKrentoR3jpkEU-] found.
Track | CTDB Status
1 | (9/9) Accurately ripped
2 | (9/9) Accurately ripped
3 | (9/9) Accurately ripped
4 | (9/9) Accurately ripped
5 | (9/9) Accurately ripped
6 | (9/9) Accurately ripped
7 | (9/9) Accurately ripped
[AccurateRip ID: 000d2e81-00505d03-630bd007] disk not present in database.

Track Peak [ CRC32 ] [W/O NULL] [ LOG ]
– 94,4 [6259B29D] [DC80F9B8] CRC32
01 94,4 [2426D283] [55EC2B10]
02 94,4 [98024C04] [5A7F0E00]
03 94,4 [F1668141] [36771643]
04 94,3 [43F80A0D] [FCAB7C87]
05 94,4 [8A15F010] [A589BD23]
06 94,4 [C4900047] [9A42A9D3]
07 94,3 [36239696] [D2B38771]

Thanks to spAceLover

Welcome to My Blog!

Free Salamander Exhibit – Undestroyed (2016) Download, Warez, DDL, Free, Full Album, Torrent, Legal.

Download