Freddy King – Blues Guitar Hero Volume 2: More Influential Federal Recordings (2002) | ViralVideoPk

Daily Dose of Free Downloads

Freddy King – Blues Guitar Hero Volume 2: More Influential Federal Recordings (2002)

Download

Freddy King - Blues Guitar Hero Volume 2: More Influential Federal Recordings (2002)

Freddy King – Blues Guitar Hero Volume 2: More Influential Federal Recordings (2002)
EAC | FLAC | Image (Cue&Log) ~ 281 Mb (incl 5%) | Mp3 (CBR320) ~ 188 Mb (incl 5%) | Scans included
Genre: Blues, Rock & Roll, Early Blues Rock | Label: Ace Records | # CDCHD 861 | Time: 01:12:43

This is something of a sequel to the 1993 Ace compilation of early King sides titled Blues Guitar Hero: The Influential Early Sessions, though it took Ace nearly a decade to unleash the companion volume. All of the 24 tracks were recorded between 1961 and 1966, though some of the songs weren’t released until after 1966, in a few cases not for decades; indeed, four alternate takes make their first appearance here. All of King’s chart records occurred in 1961, and all were included on the prior Blues Guitar Hero: The Influential Early Sessions, so this couldn’t qualify as the first-choice early King; there’s no "Hide Away" or "San-Ho-Zay" here. On a musical level, though, this isn’t much different in nature or quality than what you’ll find on the earlier anthology. Split between vocals and instrumentals, it’s top-notch R&B-blues-rock & roll crossover with stinging guitar and soulful vocals, even if the similarity of some of the songs might turn off non-aficionados. Among the cooler cuts are 1964’s "Now I’ve Got a Woman," with its riveting minor-keyed groove; the wailing slowie "Someday After Awhile (You’ll Be Sorry)," covered by the Peter Green lineup of John Mayall’s Bluesbreakers; and the faint exotica of "Bossa Nova Blues." Lonnie Mack adds some nice texture on rhythm guitar on a few of the sides of the latest vintage.

Review by Richie Unterberger, Allmusic.com

Freddy King - Blues Guitar Hero Volume 2: More Influential Federal Recordings (2002)

Freddy King at Allmusic
Freddy King Website
Freddy King at Wiki

Tracklist:

01. Over Drive (02:55)
02. Full Time Love (02:27)
03. Now I’ve Got A Woman (02:59)
04. Onion Rings (02:38)
05. You Can’t Hide (02:54)
06. Teardrops On Your Letter (02:32)
07. Heads Up (02:28)
08. You Mean Mean Woman (How Can Your Love Be True) (02:42)
09. Some Other Day, Some Other Time (02:40)
10. Wash Out (02:56)
11. Meet Me At The Station (02:43)
12. Someday After Awhile (You’ll Be Sorry) (04:32)
13. Out Front (02:37)
14. She’s The One (02:46)
15. Look,Ma I’m Cryin’ (03:09)
16. Bossa Nova Blues (02:57)
17. I Love You More Every Day (02:53)
18. Walk Down That Aisle (Honey Chile) (02:19)
19. High Rise (02:59)
20. Double Eyed Whammy (02:41)
21. Use What You’ve Got (03:04)
22. Girl From Kookamunga (02:34)
23. You’ve Got Me Licked (02:43)
24. Remington Ride (06:30)

EAC log
Exact Audio Copy V1.0 beta 3 from 29. August 2011

Отчёт EAC об извлечении, выполненном 9. сентября 2014, 16:56

Freddy King / Blues Guitar Hero Volume 2

Дисковод: SlimtypeDVD A DS8A5SH Adapter: 0 ID: 1

Режим чтения : Достоверность
Использование точного потока : Да
Отключение кэша аудио : Да
Использование указателей C2 : Нет

Коррекция смещения при чтении : 6
Способность читать области Lead-in и Lead-out : Нет
Заполнение пропущенных сэмплов тишиной : Да
Удаление блоков с тишиной в начале и конце : Нет
При вычислениях CRC использовались нулевые сэмплы : Да
Интерфейс : Встроенный Win32-интерфейс для Win NT/2000

Выходной формат : Внутренние WAV-операции
Формат сэмплов : 44.100 Гц; 16 бит; стерео

TOC извлечённого CD

Трек | Старт | Длительность | Начальный сектор | Конечный сектор
––––––––––––––––––––––––––––––––––-
1 | 0:00.00 | 2:57.15 | 0 | 13289
2 | 2:57.15 | 2:30.05 | 13290 | 24544
3 | 5:27.20 | 3:00.64 | 24545 | 38108
4 | 8:28.09 | 2:42.09 | 38109 | 50267
5 | 11:10.18 | 2:57.24 | 50268 | 63566
6 | 14:07.42 | 2:34.28 | 63567 | 75144
7 | 16:41.70 | 2:30.23 | 75145 | 86417
8 | 19:12.18 | 2:45.29 | 86418 | 98821
9 | 21:57.47 | 2:42.19 | 98822 | 110990
10 | 24:39.66 | 2:59.18 | 110991 | 124433
11 | 27:39.09 | 2:46.32 | 124434 | 136915
12 | 30:25.41 | 4:35.56 | 136916 | 157596
13 | 35:01.22 | 2:39.53 | 157597 | 169574
14 | 37:41.00 | 2:48.46 | 169575 | 182220
15 | 40:29.46 | 3:12.40 | 182221 | 196660
16 | 43:42.11 | 2:58.62 | 196661 | 210072
17 | 46:40.73 | 2:55.66 | 210073 | 223263
18 | 49:36.64 | 2:21.38 | 223264 | 233876
19 | 51:58.27 | 3:02.50 | 233877 | 247576
20 | 55:01.02 | 2:43.68 | 247577 | 259869
21 | 57:44.70 | 3:05.73 | 259870 | 273817
22 | 60:50.68 | 2:37.26 | 273818 | 285618
23 | 63:28.19 | 2:45.05 | 285619 | 297998
24 | 66:13.24 | 6:30.09 | 297999 | 327257

Характеристики диапазона извлечения и сообщения об ошибках

Выбранный диапазон

Имя файла F:Freddy King – Blues Guitar Hero Volume 2 – 2002Freddy King – Blues Guitar Hero Volume 2.wav

Пиковый уровень 97.2 %
Скорость извлечения 4.9 X
Качество диапазона 99.9 %
CRC теста 9DF7CD60
CRC копии 9DF7CD60
Копирование… OK

Ошибок не произошло

AccurateRip: сводка

Трек 1 точность не определена (достоверность 5) [5DD58D02], AccurateRip вернул [0297914B] (AR v2)
Трек 2 точность не определена (достоверность 5) [080495F4], AccurateRip вернул [96CA891C] (AR v2)
Трек 3 точность не определена (достоверность 5) [1BCDB1B4], AccurateRip вернул [866012CF] (AR v2)
Трек 4 точность не определена (достоверность 5) [E9EB8FE4], AccurateRip вернул [FDB7066F] (AR v2)
Трек 5 точность не определена (достоверность 5) [EE9737B1], AccurateRip вернул [5F15AAC7] (AR v2)
Трек 6 точность не определена (достоверность 5) [341F0079], AccurateRip вернул [8DCEAF8B] (AR v2)
Трек 7 точность не определена (достоверность 5) [8962A635], AccurateRip вернул [61BB58D7] (AR v2)
Трек 8 точность не определена (достоверность 5) [54B0E1D7], AccurateRip вернул [DD7DA4E7] (AR v2)
Трек 9 точность не определена (достоверность 5) [1D28253C], AccurateRip вернул [E3231304] (AR v2)
Трек 10 точность не определена (достоверность 5) [4544BE36], AccurateRip вернул [C06F966D] (AR v2)
Трек 11 точность не определена (достоверность 5) [58465696], AccurateRip вернул [AE491C01] (AR v2)
Трек 12 точность не определена (достоверность 5) [2A436E26], AccurateRip вернул [C6834578] (AR v2)
Трек 13 точность не определена (достоверность 5) [4833557D], AccurateRip вернул [7ED0526F] (AR v2)
Трек 14 точность не определена (достоверность 5) [9833AAEE], AccurateRip вернул [AA9704B9] (AR v2)
Трек 15 точность не определена (достоверность 5) [F0923331], AccurateRip вернул [A8B69533] (AR v2)
Трек 16 точность не определена (достоверность 5) [F76C834A], AccurateRip вернул [BD3836F1] (AR v2)
Трек 17 точность не определена (достоверность 5) [A10F68E0], AccurateRip вернул [8A7EAE14] (AR v2)
Трек 18 точность не определена (достоверность 5) [1AE82330], AccurateRip вернул [7D77E747] (AR v2)
Трек 19 точность не определена (достоверность 5) [20F9B09E], AccurateRip вернул [C5DCCF46] (AR v2)
Трек 20 точность не определена (достоверность 5) [1982A87A], AccurateRip вернул [EDFF373A] (AR v2)
Трек 21 точность не определена (достоверность 5) [85317805], AccurateRip вернул [884A141A] (AR v2)
Трек 22 точность не определена (достоверность 5) [A1519040], AccurateRip вернул [E3BDBA8E] (AR v2)
Трек 23 точность не определена (достоверность 5) [C10BF140], AccurateRip вернул [0442118D] (AR v2)
Трек 24 точность не определена (достоверность 5) [D8DB11B8], AccurateRip вернул [A1193312] (AR v2)

Ни один трек не прошёл проверки на точность
В вашей базе может быть иной вариант штамповки диска

Конец отчёта

==== Контрольная сумма отчёта 4DAFDCFB16A40E1EC5ECCC8B2FC77ECEE4B6CC14EDC06A77D21E8D94FC125BF0 ====

DR log
foobar2000 1.2 / Dynamic Range Meter 1.1.1
log date: 2014-09-21 13:14:00

––––––––––––––––––––––––––––––––––––––––
Analyzed: Freddy King / Blues Guitar Hero Volume 2
––––––––––––––––––––––––––––––––––––––––

DR Peak RMS Duration Track
––––––––––––––––––––––––––––––––––––––––
DR9 -0.38 dB -9.66 dB 2:57 01-Over Drive
DR7 -0.25 dB -7.94 dB 2:30 02-Full Time Love
DR8 -0.25 dB -9.40 dB 3:01 03-Now I’ve Got A Woman
DR8 -0.25 dB -9.62 dB 2:42 04-Onion Rings
DR7 -0.26 dB -8.74 dB 2:57 05-You Can’t Hide
DR8 -0.55 dB -10.66 dB 2:34 06-Teardrops On Your Letter
DR9 -0.32 dB -10.12 dB 2:30 07-Heads Up
DR7 -0.25 dB -8.45 dB 2:45 08-You Mean Mean Woman (How Can Your Love Be True)
DR8 -0.49 dB -9.19 dB 2:42 09-Some Other Day, Some Other Time
DR7 -0.25 dB -7.89 dB 2:59 10-Wash Out
DR7 -0.26 dB -9.15 dB 2:46 11-Meet Me At The Station
DR8 -0.30 dB -9.31 dB 4:36 12-Someday After Awhile (You’ll Be Sorry)
DR8 -0.54 dB -9.75 dB 2:40 13-Out Front
DR8 -0.41 dB -9.27 dB 2:49 14-She’s The One
DR7 -0.25 dB -8.73 dB 3:13 15-Look,Ma I’m Cryin’
DR7 -0.67 dB -9.37 dB 2:59 16-Bossa Nova Blues
DR8 -0.25 dB -9.17 dB 2:56 17-I Love You More Every Day
DR8 -0.25 dB -8.82 dB 2:22 18-Walk Down That Aisle (Honey Chile)
DR7 -0.26 dB -8.88 dB 3:03 19-High Rise
DR7 -0.25 dB -7.97 dB 2:44 20-Double Eyed Whammy
DR8 -0.25 dB -9.95 dB 3:06 21-Use What You’ve Got
DR7 -0.25 dB -8.48 dB 2:37 22-Girl From Kookamunga
DR7 -0.25 dB -8.52 dB 2:45 23-You’ve Got Me Licked
DR7 -0.25 dB -7.64 dB 6:30 24-Remington Ride
––––––––––––––––––––––––––––––––––––––––

Number of tracks: 24
Official DR value: DR8

Samplerate: 44100 Hz
Channels: 2
Bits per sample: 16
Bitrate: 489 kbps
Codec: FLAC
================================================================================

Freddy King - Blues Guitar Hero Volume 2: More Influential Federal Recordings (2002)

Freddy King - Blues Guitar Hero Volume 2: More Influential Federal Recordings (2002)

All thanks to original releaser – DMITRYMINANDER

More interesting music in My Blog

Freddy King – Blues Guitar Hero: The Influential Early Sessions (1993)

Freddy King – Blues Guitar Hero Volume 2: More Influential Federal Recordings (2002) Download, Warez, DDL, Free, Full Album, Torrent, Legal.

Download


  • Recent Posts

  • Recent Tags