Freddy King – Blues Guitar Hero: The Influential Early Sessions (1993) [Re-Up]

Download
Freddy King - Blues Guitar Hero: The Influential Early Sessions (1993) [Re-Up]

Freddy King – Blues Guitar Hero: The Influential Early Sessions (1993)
EAC | FLAC | Image (Cue&Log) ~ 416 Mb (incl 5%) | Mp3 (CBR320) ~ 173 Mb (incl 5%) | Scans included
Electric Texas Blues, Modern Electric Blues | Label: Ace Records | # CDCHD 454 | Time: 01:08:59

Of the Three ‘Kings’ of the blues (BB, Albert and Freddy), Freddy King is perhaps the least well known these days. He enjoyed cross-over success with the white rock audiences of the 70s (hitting with albums for Cotillion, RSO and Shelter and touring extensively – his ‘live’ LP for German label Crosscut is about the closest thing to heavy metal blues imaginable). Yet his death from hepatitis in 1976 robbed Freddy of the kind of acclaim that the current blues revival has given BB, Albert and John Lee Hooker. There was a time, though, in the mid-’60s when his singles were among the most influential in blues, particularly for British and European audiences. His instrumental singles Hideaway and Drivin’ Sideways were issued on Sue and covered by every white blues group that knew what was really happening on the R&B scene. Those two sides plus classics like (The Welfare) Turns It’s Back On You, See See Baby, The Stumble and San-Ho-Zay were covered by the likes of Eric Clapton, John Mayall, Peter Green, Albert Collins and Chicken Shack. The Influential Early Sessions gathers together all these wonderful sides, made originally in the early ’60s for Sy Nathan’s Federal and King labels, in Cincinnati, Ohio, and the class and power of them remains undiminished to this day.

This has 24 sides that King did for Federal in the early 1960s, all but two of them from 1961 and 1962, and all but one released on singles. Half of this appears on Rhino’s King retrospective Hide Away: The Best of Freddy King, which has a slightly more astute track selection, so if you have that and feel like that’s sufficient Freddy King for your library, you’ll probably give this a pass. If, however, you want more King from his best period, this is certainly worth checking out. Included is a moderate 1961 R&B hit, "Christmas Tears," that doesn’t appear on the Rhino comp, and is slower and more piano-based than much of his output during the era. As for the other items on the disc that are on the obscure side, they tend to be more derivative of non-blues R&B trends, like black vocal groups and New Orleans rock & roll, than King’s best and most smoking sides were. On the other hand, cuts like "Takin’ Care of Business" and the instrumental "Side Tracked" deliver the stinging King guitar licks that were his best assets, and his blues guitar is in fact present to some degree on everything. "(The Welfare) Turns Its Back on You" is an unusual stride into socially conscious material, and after listening to King’s high vocal phrasing on "What About Love," it wouldn’t be at all surprising to learn that it might have influenced the young Stevie Winwood.

Review by Richie Unterberger, Allmusic.com

Freddy King - Blues Guitar Hero: The Influential Early Sessions (1993) [Re-Up]

Freddie King at Allmusic
Freddie King Website
Freddie King at Wiki

Tracklist:

01. Hide Away (02:35)
02. Lonesome Whistle Blues (02:53)
03. San-Ho-Zay (02:35)
04. I’m Tore Down (02:36)
05. See See Baby (02:18)
06. Christmas Tears (02:45)
07. You’ve Got To Love Her With A Feeling (03:12)
08. Have You Ever Loved A Woman (03:05)
09. You Know That You Love Me (02:18)
10. I Love The Woman (02:47)
11. Tt’s Too Bad Things Are Going So Tough (03:07)
12. Sen-Sa-Shun (02:52)
13. If You Believe In What You Do (03:00)
14. Takin’ Care Of Business (02:46)
15. The Stumble (03:11)
16. Sittin’ On The Boat Dock (02:55)
17. Side Tracked (03:06)
18. What About Love (02:29)
19. Come On (03:01)
20. Just Pickin’ (02:32)
21. I’m On My Way To Atlanta (03:39)
22. In The Open (02:34)
23. (The Welfare) Turns Its Back On You (02:41)
24. She Put The Whammy On Me (02:57)

EAC log
Exact Audio Copy V1.0 beta 3 from 29. August 2011

Отчёт EAC об извлечении, выполненном 9. сентября 2014, 18:34

Freddy King / Blues Guitar Hero: The Influential Early Sessions

Дисковод: SlimtypeDVD A DS8A5SH Adapter: 0 ID: 1

Режим чтения : Достоверность
Использование точного потока : Да
Отключение кэша аудио : Да
Использование указателей C2 : Нет

Коррекция смещения при чтении : 6
Способность читать области Lead-in и Lead-out : Нет
Заполнение пропущенных сэмплов тишиной : Да
Удаление блоков с тишиной в начале и конце : Нет
При вычислениях CRC использовались нулевые сэмплы : Да
Интерфейс : Встроенный Win32-интерфейс для Win NT/2000

Выходной формат : Внутренние WAV-операции
Формат сэмплов : 44.100 Гц; 16 бит; стерео

TOC извлечённого CD

Трек | Старт | Длительность | Начальный сектор | Конечный сектор
––––––––––––––––––––––––––––––––––-
1 | 0:00.32 | 2:37.53 | 32 | 11859
2 | 2:38.10 | 2:56.65 | 11860 | 25124
3 | 5:35.00 | 2:38.47 | 25125 | 37021
4 | 8:13.47 | 2:40.33 | 37022 | 49054
5 | 10:54.05 | 2:18.10 | 49055 | 59414
6 | 13:12.15 | 2:48.55 | 59415 | 72069
7 | 16:00.70 | 3:16.22 | 72070 | 86791
8 | 19:17.17 | 3:08.08 | 86792 | 100899
9 | 22:25.25 | 2:21.60 | 100900 | 111534
10 | 24:47.10 | 2:50.40 | 111535 | 124324
11 | 27:37.50 | 3:07.30 | 124325 | 138379
12 | 30:45.05 | 2:55.07 | 138380 | 151511
13 | 33:40.12 | 3:02.73 | 151512 | 165234
14 | 36:43.10 | 2:47.27 | 165235 | 177786
15 | 39:30.37 | 3:14.48 | 177787 | 192384
16 | 42:45.10 | 2:58.35 | 192385 | 205769
17 | 45:43.45 | 3:08.30 | 205770 | 219899
18 | 48:52.00 | 2:31.32 | 219900 | 231256
19 | 51:23.32 | 3:04.18 | 231257 | 245074
20 | 54:27.50 | 2:34.25 | 245075 | 256649
21 | 57:02.00 | 3:41.50 | 256650 | 273274
22 | 60:43.50 | 2:35.30 | 273275 | 284929
23 | 63:19.05 | 2:43.52 | 284930 | 297206
24 | 66:02.57 | 2:57.10 | 297207 | 310491

Характеристики диапазона извлечения и сообщения об ошибках

Выбранный диапазон

Имя файла F:Freddy King – Blues Guitar Hero The Influential Early Sessions – 1993Freddy King – Blues Guitar Hero- The Influential Early Sessions.wav

Пиковый уровень 100.0 %
Скорость извлечения 2.1 X
Качество диапазона 100.0 %
CRC теста 3AF85B1E
CRC копии 3AF85B1E
Копирование… OK

Ошибок не произошло

AccurateRip: сводка

Трек 1 : извлечено точно (доверие 7) [EF863E15] (AR v2)
Трек 2 : извлечено точно (доверие 7) [41F68D44] (AR v2)
Трек 3 : извлечено точно (доверие 7) [7CBF1794] (AR v2)
Трек 4 : извлечено точно (доверие 7) [F584DA8A] (AR v2)
Трек 5 : извлечено точно (доверие 7) [755D163E] (AR v2)
Трек 6 : извлечено точно (доверие 7) [7419E3F5] (AR v2)
Трек 7 : извлечено точно (доверие 7) [90976A5C] (AR v2)
Трек 8 : извлечено точно (доверие 7) [B20C720A] (AR v2)
Трек 9 : извлечено точно (доверие 7) [0F010686] (AR v2)
Трек 10 : извлечено точно (доверие 7) [3C9446BE] (AR v2)
Трек 11 : извлечено точно (доверие 7) [45644127] (AR v2)
Трек 12 : извлечено точно (доверие 7) [38548225] (AR v2)
Трек 13 : извлечено точно (доверие 7) [AE481513] (AR v2)
Трек 14 : извлечено точно (доверие 7) [CEC6B906] (AR v2)
Трек 15 : извлечено точно (доверие 7) [D9986474] (AR v2)
Трек 16 : извлечено точно (доверие 7) [F0AD0C9E] (AR v2)
Трек 17 : извлечено точно (доверие 7) [3815778E] (AR v2)
Трек 18 : извлечено точно (доверие 7) [8F917CBF] (AR v2)
Трек 19 : извлечено точно (доверие 7) [0267AF24] (AR v2)
Трек 20 : извлечено точно (доверие 7) [388F9207] (AR v2)
Трек 21 : извлечено точно (доверие 7) [9963AD06] (AR v2)
Трек 22 : извлечено точно (доверие 7) [7410F1EA] (AR v2)
Трек 23 : извлечено точно (доверие 7) [6C668A2A] (AR v2)
Трек 24 : извлечено точно (доверие 6) [5581DB99] (AR v2)

Все треки извлечены точно

Конец отчёта

==== Контрольная сумма отчёта 48C58979A6914669D6C08DF2DB51AE717E281AB803B17D26A049586A6B1349FF ====

DR log
foobar2000 1.2 / Dynamic Range Meter 1.1.1
log date: 2014-09-20 16:26:11

––––––––––––––––––––––––––––––––––––––––
Analyzed: Freddy King / Blues Guitar Hero: The Influential Early Sessions
––––––––––––––––––––––––––––––––––––––––

DR Peak RMS Duration Track
––––––––––––––––––––––––––––––––––––––––
DR13 -1.61 dB -15.74 dB 2:38 01-Hide Away
DR13 -0.34 dB -14.96 dB 2:57 02-Lonesome Whistle Blues
DR12 -1.36 dB -14.70 dB 2:39 03-San-Ho-Zay
DR14 0.00 dB -15.90 dB 2:40 04-I’m Tore Down
DR13 0.00 dB -15.17 dB 2:18 05-See See Baby
DR13 -0.17 dB -16.12 dB 2:49 06-Christmas Tears
DR14 -0.60 dB -16.53 dB 3:16 07-You’ve Got To Love Her With A Feeling
DR12 -3.13 dB -16.66 dB 3:08 08-Have You Ever Loved A Woman
DR14 -0.24 dB -15.99 dB 2:22 09-You Know That You Love Me
DR13 -0.84 dB -16.39 dB 2:51 10-I Love The Woman
DR12 -0.80 dB -14.67 dB 3:07 11-Tt’s Too Bad Things Are Going So Tough
DR14 -0.51 dB -15.84 dB 2:55 12-Sen-Sa-Shun
DR13 -0.53 dB -16.53 dB 3:03 13-If You Believe In What You Do
DR12 -0.70 dB -14.31 dB 2:47 14-Takin’ Care Of Business
DR14 -0.73 dB -15.84 dB 3:15 15-The Stumble
DR13 0.00 dB -14.94 dB 2:58 16-Sittin’ On The Boat Dock
DR13 -0.77 dB -16.01 dB 3:08 17-Side Tracked
DR14 -0.67 dB -17.23 dB 2:31 18-What About Love
DR10 -0.73 dB -13.44 dB 3:04 19-Come On
DR13 -0.58 dB -15.60 dB 2:34 20-Just Pickin’
DR11 -0.49 dB -13.94 dB 3:42 21-I’m On My Way To Atlanta
DR13 0.00 dB -15.57 dB 2:35 22-In The Open
DR13 -1.89 dB -17.23 dB 2:44 23-(The Welfare) Turns Its Back On You
DR11 -1.09 dB -13.72 dB 2:57 24-She Put The Whammy On Me
––––––––––––––––––––––––––––––––––––––––

Number of tracks: 24
Official DR value: DR13

Samplerate: 44100 Hz
Channels: 2
Bits per sample: 16
Bitrate: 788 kbps
Codec: FLAC
================================================================================

Freddy King - Blues Guitar Hero: The Influential Early Sessions (1993) [Re-Up]

Freddy King - Blues Guitar Hero: The Influential Early Sessions (1993) [Re-Up]

All thanks to original releaser – DMITRYMINANDER

More interesting music in My Blog

Freddy King – Blues Guitar Hero: The Influential Early Sessions (1993) [Re-Up] Download, Warez, DDL, Free, Full Album, Torrent, Legal.

Download