Fred Ho & The Green Monster Big Band – Celestial Green Monster (2009) {Mutable Music–Big Red Media 001}

Download
Fred Ho & The Green Monster Big Band - Celestial Green Monster (2009) {Mutable Music--Big Red Media 001}

Fred Ho & The Green Monster Big Band – Celestial Green Monster (2009) {Mutable Music–Big Red Media 001}
EAC rip (secure mode) | FLAC (tracks)+CUE+LOG -> 449 Mb | MP3 @320 -> 174 Mb
Full Artwork @ 300 dpi (jpg) -> 19 Mb | 5% repair rar
© 2009 Mutable Music / Big Red Media | 001
Jazz / Avant-Garde Jazz / Experimental / Modern Creative / Modern Big Band / Saxophone

Asian-American baritone saxophonist Fred Ho has been a champion of freedom and expressionism in modern creative jazz for some time. A continuing battle with cancer has inspired him to assemble the Green Monster Big Band, with reference to the famed left-field wall at Fenway Park in Boston, but more directly related to the huge sound and diverse ideas this juggernaut ensemble represents. Ho is influenced by the ’60s big bands, television or movie themes, and the psychedelic rock he grew up with, all present on this ambitious program.

He’s recruited heavyweight peers like saxophonists Bobby Zankel, Jim Hobbs, Salim Washington, and Hafez Modirzadeh, trumpeter Stanton Davis and cornetist Taylor Ho Bynum, contrabass trombonist Earl McIntyre, bassist Wes Brown, electric guitarist Mary Halvorson, and pianist Art Hirahara, among others to execute his larger-than-life vision. In the extreme at nearly 40 minutes total, "The Struggle for a New World Suite" in seven movements evokes a ton of emotional and rhythmic discourse, starting out sounding like "Smoke on the Water," with curious under-the-surface moods, probing funk, nice jazz, swirling horns in odd meters, stealth or deliberate casts, a free piece subtitled "Guerillas Gone Wild," and ends in a tango inference. "In-A-Gadda-Da-Vida" is less pronounced but punchy in five parts, with English and Persian lyrics, and the kind of distant organ or large horn insurgency you’d expect in a jazz interpretation of the Iron Butterfly magnum opus. A short and delightful "Spiderman Theme" contrasts, but the remaining tracks "Liberation Genesis" and "Blues to the Freedom Fighters" show more of Ho’s intertwining of his compositional concepts with the great ability of his sidemen to solo. There’s so much music here that it staggers the imagination, but give it a try and don’t be afraid of this green monster, as it’s a fairly friendly one, if a bit imposing.

Fred Ho & The Green Monster Big Band - Celestial Green Monster (2009) {Mutable Music--Big Red Media 001}

Personnel:
Leader, Saxophone Fred Ho
Trumpet Stanton Davis
Trumpet Samir El-Amin
Trumpet Brian Kilpatrick
Trombone Richard Harper
Trombone Martin Wehner
Trombone Bob Pilkington
Contrabass Trombone Earl McIntyre
Contrabass Trombone Dave Harris
Saxophone Salim Washington
Saxophone Jim Hobbs
Saxophone Hafez Modirzadeh
Saxophone Bobby Zankel
Keyboards, Piano Art Hirahara
Drums Royal Hartigan
Cornet Taylor Ho Bynum
Bass Wes Brown
Vocals Abraham Gomez-Delgado
Vocals Haleh Abghari
Guitar Mary Halvorson

tracklist:
01 – Spiderman Theme
02 – In-A-Gadda-Da-Vida 1
03 – In-A-Gadda-Da-Vida 2
04 – In-A-Gadda-Da-Vida 3
05 – In-A-Gadda-Da-Vida 4
06 – In-A-Gadda-Da-Vida 5
07 – Liberation Genesis
08 – Blues To The Freedom Fighters
09 – The Struggle For A New World Suite 1
10 – The Struggle For A New World Suite 2
11 – The Struggle For A New World Suite 3
12 – The Struggle For A New World Suite 4
13 – The Struggle For A New World Suite 5
14 – The Struggle For A New World Suite 6
15 – The Struggle For A New World Suite 7

EAC log
Exact Audio Copy V1.0 beta 1 from 15. November 2010

EAC extraction logfile from 23. September 2012, 19:56

Fred Ho / Celestial Green Monster

Used drive : TSSTcorpCDDVDW SH-S203N Adapter: 0 ID: 2

Read mode : Secure
Utilize accurate stream : Yes
Defeat audio cache : Yes
Make use of C2 pointers : No

Read offset correction : 6
Overread into Lead-In and Lead-Out : No
Fill up missing offset samples with silence : Yes
Delete leading and trailing silent blocks : No
Null samples used in CRC calculations : Yes
Used interface : Installed external ASPI interface
Gap handling : Appended to previous track

Used output format : User Defined Encoder
Selected bitrate : 768 kBit/s
Quality : High
Add ID3 tag : No
Command line compressor : C:Program FilesExact Audio Copy-NEWFlacflac.exe
Additional command line options : -8 -V -T "ARTIST=%a" -T "TITLE=%t" -T "ALBUM=%g" -T "DATE=%y" -T "TRACKNUMBER=%n" -T "TOTALTRACKS=%x" -T "GENRE=%m" -T "ALBUMARTIST=%v" -T "ALBUM ARTIST=%v" -T "COMMENT=EAC V1.01b1, Secure Mode, Test & Copy, AccurateRip, FL

TOC of the extracted CD

Track | Start | Length | Start sector | End sector
––––––––––––––––––––––––––––-
1 | 0:00.00 | 2:20.18 | 0 | 10517
2 | 2:20.18 | 6:50.47 | 10518 | 41314
3 | 9:10.65 | 2:44.57 | 41315 | 53671
4 | 11:55.47 | 0:44.55 | 53672 | 57026
5 | 12:40.27 | 1:27.59 | 57027 | 63610
6 | 14:08.11 | 4:14.28 | 63611 | 82688
7 | 18:22.39 | 6:49.21 | 82689 | 113384
8 | 25:11.60 | 9:56.10 | 113385 | 158094
9 | 35:07.70 | 2:03.69 | 158095 | 167388
10 | 37:11.64 | 9:29.43 | 167389 | 210106
11 | 46:41.32 | 6:14.27 | 210107 | 238183
12 | 52:55.59 | 3:07.58 | 238184 | 252266
13 | 56:03.42 | 1:37.66 | 252267 | 259607
14 | 57:41.33 | 6:28.50 | 259608 | 288757
15 | 64:10.08 | 9:14.52 | 288758 | 330359

Track 1

Filename J:New RipsFred Ho – Celestial Green Monster (2009) [FLAC]1 – Spiderman Theme.wav

Pre-gap length 0:00:02.00

Peak level 99.9 %
Extraction speed 4.1 X
Track quality 100.0 %
Test CRC 0ED853BE
Copy CRC 0ED853BE
Track not present in AccurateRip database
Copy OK

Track 2

Filename J:New RipsFred Ho – Celestial Green Monster (2009) [FLAC]2 – In-A-Gadda-Da-Vida 1.wav

Pre-gap length 0:00:03.00

Peak level 97.9 %
Extraction speed 5.4 X
Track quality 100.0 %
Test CRC 3BB3BA04
Copy CRC 3BB3BA04
Track not present in AccurateRip database
Copy OK

Track 3

Filename J:New RipsFred Ho – Celestial Green Monster (2009) [FLAC]3 – In-A-Gadda-Da-Vida 2.wav

Peak level 99.9 %
Extraction speed 5.2 X
Track quality 100.0 %
Test CRC 91F195AA
Copy CRC 91F195AA
Track not present in AccurateRip database
Copy OK

Track 4

Filename J:New RipsFred Ho – Celestial Green Monster (2009) [FLAC]4 – In-A-Gadda-Da-Vida 3.wav

Peak level 93.9 %
Extraction speed 3.4 X
Track quality 100.0 %
Test CRC 6BB1D40E
Copy CRC 6BB1D40E
Track not present in AccurateRip database
Copy OK

Track 5

Filename J:New RipsFred Ho – Celestial Green Monster (2009) [FLAC]5 – In-A-Gadda-Da-Vida 4.wav

Peak level 96.1 %
Extraction speed 4.6 X
Track quality 100.0 %
Test CRC 3BCCD05F
Copy CRC 3BCCD05F
Track not present in AccurateRip database
Copy OK

Track 6

Filename J:New RipsFred Ho – Celestial Green Monster (2009) [FLAC]6 – In-A-Gadda-Da-Vida 5.wav

Peak level 98.7 %
Extraction speed 4.9 X
Track quality 99.9 %
Test CRC 58EE2D8B
Copy CRC 58EE2D8B
Track not present in AccurateRip database
Copy OK

Track 7

Filename J:New RipsFred Ho – Celestial Green Monster (2009) [FLAC]7 – Liberation Genesis.wav

Pre-gap length 0:00:03.00

Peak level 100.0 %
Extraction speed 6.9 X
Track quality 100.0 %
Test CRC 77568351
Copy CRC 77568351
Track not present in AccurateRip database
Copy OK

Track 8

Filename J:New RipsFred Ho – Celestial Green Monster (2009) [FLAC]8 – Blues To The Freedom Fighters.wav

Pre-gap length 0:00:03.00

Peak level 100.0 %
Extraction speed 7.8 X
Track quality 100.0 %
Test CRC 5E751CF1
Copy CRC 5E751CF1
Track not present in AccurateRip database
Copy OK

Track 9

Filename J:New RipsFred Ho – Celestial Green Monster (2009) [FLAC]9 – The Struggle For A New World Suite 1.wav

Pre-gap length 0:00:03.00

Peak level 96.2 %
Extraction speed 6.6 X
Track quality 100.0 %
Test CRC 3A3A988A
Copy CRC 3A3A988A
Track not present in AccurateRip database
Copy OK

Track 10

Filename J:New RipsFred Ho – Celestial Green Monster (2009) [FLAC]10 – The Struggle For A New World Suite 2.wav

Peak level 99.7 %
Extraction speed 8.7 X
Track quality 100.0 %
Test CRC D2DFD16E
Copy CRC D2DFD16E
Track not present in AccurateRip database
Copy OK

Track 11

Filename J:New RipsFred Ho – Celestial Green Monster (2009) [FLAC]11 – The Struggle For A New World Suite 3.wav

Peak level 97.0 %
Extraction speed 8.9 X
Track quality 100.0 %
Test CRC 1CE9BF4D
Copy CRC 1CE9BF4D
Track not present in AccurateRip database
Copy OK

Track 12

Filename J:New RipsFred Ho – Celestial Green Monster (2009) [FLAC]12 – The Struggle For A New World Suite 4.wav

Peak level 93.9 %
Extraction speed 8.3 X
Track quality 100.0 %
Test CRC D2A900A3
Copy CRC D2A900A3
Track not present in AccurateRip database
Copy OK

Track 13

Filename J:New RipsFred Ho – Celestial Green Monster (2009) [FLAC]13 – The Struggle For A New World Suite 5.wav

Peak level 99.9 %
Extraction speed 7.3 X
Track quality 100.0 %
Test CRC CA526252
Copy CRC CA526252
Track not present in AccurateRip database
Copy OK

Track 14

Filename J:New RipsFred Ho – Celestial Green Monster (2009) [FLAC]14 – The Struggle For A New World Suite 6.wav

Peak level 99.8 %
Extraction speed 9.6 X
Track quality 100.0 %
Test CRC 7863BABE
Copy CRC 7863BABE
Track not present in AccurateRip database
Copy OK

Track 15

Filename J:New RipsFred Ho – Celestial Green Monster (2009) [FLAC]15 – The Struggle For A New World Suite 7.wav

Peak level 99.6 %
Extraction speed 10.3 X
Track quality 100.0 %
Test CRC 19611849
Copy CRC 19611849
Track not present in AccurateRip database
Copy OK

None of the tracks are present in the AccurateRip database

No errors occurred

End of status report

==== Log checksum 79548F6D817ED230042C043706A7CB9DFAE0780CEAA0B2F0A1E74E43009EDD4B ====

Fred Ho & The Green Monster Big Band - Celestial Green Monster (2009) {Mutable Music--Big Red Media 001}

Fred Ho & The Green Monster Big Band - Celestial Green Monster (2009) {Mutable Music--Big Red Media 001}

All thanks goes to the original releaser!

see also:
Fred Ho & The Green Monster Big Band – The Sweet Science Suite: A Scientific Soul Music Honoring Of Muhammad Ali (2011)

Fred Ho & The Green Monster Big Band – Celestial Green Monster (2009) {Mutable Music–Big Red Media 001} Download, Warez, DDL, Free, Full Album, Torrent, Legal.

Download