Frank Sinatra – The Sinatra Christmas Album (1994) | ViralVideoPk

Daily Dose of Free Downloads

Frank Sinatra – The Sinatra Christmas Album (1994)

Download

Frank Sinatra - The Sinatra Christmas Album (1994)

Frank Sinatra – The Sinatra Christmas Album (1994)
EAC | FLAC | Tracks (Cue&Log) ~ 270 Mb (incl 5%) | Mp3 (CBR320) ~ 122 Mb (incl 5%) | Scans included
Holidays, Christmas, Vocal Pop, Vocal Jazz | Label: Reprise | # 9362-457443-2 | Time: 00:41:26

Christmas probably sounded a lot like this in Hoboken, circa the late 1930s: A skinny kid with a huge voice leading friends through favorite carols like "The Little Drummer Boy" and "Greensleeves." Fast forward and that skinny kid is no longer just another voice in the crowd. All ears are turned his way as he croons through a whole new set of Christmas standards, from "The Christmas Waltz" to "I Wouldn’t Trade Christmas." Sinatra is in fine voice on this 13-song set, which boasts some of the better arrangements you’ll hear on a seasonal album.

Review by David Sprague

This release is worth five stars without a doubt. I have all of Sinatra’s Christmas releases but this one is the best. This compilation contains Christmas standards and "newer" tunes (for their time). Although I normally don’t review each song, this album is worth the effort

1. Have Yourself A Merry Little Christmas – This is a warm, Christmas classic done in a traditional fashion as only Sinatra can do.
2. Old Fashioned Christmas – This song makes you long for Christmas in less complicated times. Beautiful song!
3. I Heard The Bells On Christmas Day – Another Christmas standard done as only Sinatra can do them.
4. Little Drummer Boy – This song is a pure delight. This song is perhaps the most reverant Sinatra ever sounded.
5. Go Tell It On The Mountain – Sintra and Bing Crosby do an excellent version of this gospel / Christmas classic. This is pure fun, and the listener can tell that Sintra and Bing are having a ball with this one.
6. We Wish You The Merriest – Another Sinatra and Bing delight. This one really gets the listener in the Christmas mood.
7. Whatever Happened To Christmas – This is one of my all-time favorite Sinatra songs. Although it is somewhat out of place following such a festive song as "We wish you the merriest," this is a very well crafted and well delievered song. It reminds me of the "Let Me Try Again" album.
8. Twelve Days Of Christmas – This is a family sing-along of a classic song with re-written lyrics. With its 1960s feel it’s fun and gets the listener in the Christmas spirit.
9. Bells Of Christmas (Greensleeves)- Any song set to Greensleeves is a great song in my book. This is another Sinatra family sing-along, with Frank Jr. doing a wonderful job sounding very much like his father. A very beautiful and haunting Christmas classic.
10. I Wouldn’t Trade Christmas – More 1960s era fun with the Sinatra family.
11. Christmas Waltz – A remake of the Sinatra classic. This version is every bit as good as the original, if not better. 12. Baby Just Like You – A very reflective song which lets you peek behind the image and see the man himself. I love this song with it’s honesty and openness. Not a Christmas standard or classic, but a very worthy addition to this compilation.
13. Christmas Memories – Another reflective song that the forces the listener to reflect. Wonderful delivery. A very nice well to conclude this album.

This is a wonderful album to build Christmas memories around. This is my second all-around Christmas album, second only to Elvis’ Wonderful World of Christmas.

Review by Sherrlon, Amazon.com
Frank Sinatra - The Sinatra Christmas Album (1994)

Frank Sinatra at Allmusic
Frank Sinatra Website
Frank Sinatra at Wiki

Tracklist:

01. Have Yourself A Merry Little Christmas (3:57)
02. An Old Fashioned Christmas (3:47)
03. I Heard The Bells On Christmas Day (2:38)
04. The Little Drummer Boy (3:04)
05. Go Tell It On The Mountain (feat. Bing Crosby) (3:24)
06. We Wish You The Merriest (feat. Bing Crosby) (2:15)
07. Whatever Happened To Christmas? (3:06)
08. The Twelve Days Of Christmas (feat. Tina, Nancy & Frank, Jr.) (4:29)
09. The Bells Of Christmas (Greensleeves) (feat. Tina, Nancy & Frank, Jr.) (3:41)
10. I Wouldn’t Trade Christmas (feat. Tina, Nancy & Frank, Jr.) (2:54)
11. The Christmas Waltz (3:13)
12. A Baby Just Like You (2:47)
13. Christmas Memories (2:09)

EAC log
Exact Audio Copy V1.3 from 2. September 2016

EAC extraction logfile from 4. November 2016, 11:09

Frank Sinatra / The Sinatra Christmas Album

Used drive : TSSTcorpCDDVDW SE-208AB Adapter: 2 ID: 0

Read mode : Secure
Utilize accurate stream : Yes
Defeat audio cache : Yes
Make use of C2 pointers : No

Read offset correction : 6
Overread into Lead-In and Lead-Out : No
Fill up missing offset samples with silence : Yes
Delete leading and trailing silent blocks : No
Null samples used in CRC calculations : Yes
Used interface : Installed external ASPI interface
Gap handling : Appended to previous track

Used output format : User Defined Encoder
Selected bitrate : 768 kBit/s
Quality : High
Add ID3 tag : No
Command line compressor : C:Program Files (x86)Exact Audio CopyFlacflac.exe
Additional command line options : -8 -V -T "ARTIST=%artist%" -T "TITLE=%title%" -T "ALBUM=%albumtitle%" -T "DATE=%year%" -T "TRACKNUMBER=%tracknr%" -T "GENRE=%genre%" -T "COMMENT=%comment%" -T "BAND=%albuminterpret%" -T "ALBUMARTIST=%albuminterpret%" -T "COMPOSER=%composer%" %haslyrics%–tag-from-file=LYRICS="%lyricsfile%"%haslyrics% -T "DISCNUMBER=%cdnumber%" -T "TOTALDISCS=%totalcds%" -T "TOTALTRACKS=%numtracks%" %hascover%–picture="%coverfile%"%hascover% %source% -o %dest%

TOC of the extracted CD

Track | Start | Length | Start sector | End sector
––––––––––––––––––––––––––––-
1 | 0:00.00 | 3:57.15 | 0 | 17789
2 | 3:57.15 | 3:47.30 | 17790 | 34844
3 | 7:44.45 | 2:37.70 | 34845 | 46689
4 | 10:22.40 | 3:04.30 | 46690 | 60519
5 | 13:26.70 | 3:23.67 | 60520 | 75811
6 | 16:50.62 | 2:15.28 | 75812 | 85964
7 | 19:06.15 | 3:06.02 | 85965 | 99916
8 | 22:12.17 | 4:29.35 | 99917 | 120126
9 | 26:41.52 | 3:41.00 | 120127 | 136701
10 | 30:22.52 | 2:54.10 | 136702 | 149761
11 | 33:16.62 | 3:13.08 | 149762 | 164244
12 | 36:29.70 | 2:47.30 | 164245 | 176799
13 | 39:17.25 | 2:08.55 | 176800 | 186454

Track 1

Filename C:Program Files (x86)Exact Audio CopyFlac1. Have Yourself a Merry Little Christmas.wav

Pre-gap length 0:00:02.00

Peak level 77.7 %
Extraction speed 2.5 X
Track quality 100.0 %
Test CRC C4295EF4
Copy CRC C4295EF4
Accurately ripped (confidence 9) [8F0D8573] (AR v2)
Copy OK

Track 2

Filename C:Program Files (x86)Exact Audio CopyFlac2. An Old Fashioned Christmas.wav

Pre-gap length 0:00:01.25

Peak level 88.8 %
Extraction speed 2.3 X
Track quality 99.9 %
Test CRC D72A258E
Copy CRC D72A258E
Accurately ripped (confidence 9) [5A9983BE] (AR v2)
Copy OK

Track 3

Filename C:Program Files (x86)Exact Audio CopyFlac3. I Heard the Bells on Christmas Day.wav

Pre-gap length 0:00:01.43

Peak level 87.3 %
Extraction speed 2.8 X
Track quality 100.0 %
Test CRC B8C26043
Copy CRC B8C26043
Accurately ripped (confidence 9) [4FA7DB99] (AR v2)
Copy OK

Track 4

Filename C:Program Files (x86)Exact Audio CopyFlac4. The Little Drummer Boy.wav

Pre-gap length 0:00:01.70

Peak level 85.7 %
Extraction speed 3.0 X
Track quality 100.0 %
Test CRC 311B1D02
Copy CRC 311B1D02
Accurately ripped (confidence 9) [FA2BE6F6] (AR v2)
Copy OK

Track 5

Filename C:Program Files (x86)Exact Audio CopyFlac5. Go Tell It on the Mountain.wav

Pre-gap length 0:00:01.55

Peak level 98.2 %
Extraction speed 3.3 X
Track quality 100.0 %
Test CRC 07402792
Copy CRC 07402792
Accurately ripped (confidence 9) [6C299EF9] (AR v2)
Copy OK

Track 6

Filename C:Program Files (x86)Exact Audio CopyFlac6. We Wish You the Merriest.wav

Pre-gap length 0:00:01.40

Peak level 96.3 %
Extraction speed 3.1 X
Track quality 100.0 %
Test CRC 702DF859
Copy CRC 702DF859
Accurately ripped (confidence 9) [F51FA572] (AR v2)
Copy OK

Track 7

Filename C:Program Files (x86)Exact Audio CopyFlac7. Whatever Happened to Christmas.wav

Pre-gap length 0:00:01.30

Peak level 82.1 %
Extraction speed 3.5 X
Track quality 100.0 %
Test CRC D20BCCD7
Copy CRC D20BCCD7
Accurately ripped (confidence 9) [864EDA73] (AR v2)
Copy OK

Track 8

Filename C:Program Files (x86)Exact Audio CopyFlac8. The Twelve Days of Christmas.wav

Pre-gap length 0:00:01.62

Peak level 87.3 %
Extraction speed 3.8 X
Track quality 100.0 %
Test CRC 1345994A
Copy CRC 1345994A
Accurately ripped (confidence 9) [C62429EE] (AR v2)
Copy OK

Track 9

Filename C:Program Files (x86)Exact Audio CopyFlac9. The Bells of Christmas (Greensleeves).wav

Pre-gap length 0:00:01.50

Peak level 90.1 %
Extraction speed 3.9 X
Track quality 100.0 %
Test CRC 592015CD
Copy CRC 592015CD
Accurately ripped (confidence 9) [7D89DE66] (AR v2)
Copy OK

Track 10

Filename C:Program Files (x86)Exact Audio CopyFlac10. I Wouldn’t Trade Christmas.wav

Peak level 84.7 %
Extraction speed 3.9 X
Track quality 100.0 %
Test CRC E848E04E
Copy CRC E848E04E
Accurately ripped (confidence 9) [9F997478] (AR v2)
Copy OK

Track 11

Filename C:Program Files (x86)Exact Audio CopyFlac11. The Christmas Waltz.wav

Pre-gap length 0:00:01.50

Peak level 83.4 %
Extraction speed 4.0 X
Track quality 100.0 %
Test CRC 436DAB1C
Copy CRC 436DAB1C
Accurately ripped (confidence 9) [D056C306] (AR v2)
Copy OK

Track 12

Filename C:Program Files (x86)Exact Audio CopyFlac12. A Baby Just Like You.wav

Pre-gap length 0:00:01.68

Peak level 70.4 %
Extraction speed 4.1 X
Track quality 100.0 %
Test CRC 137C639F
Copy CRC 137C639F
Accurately ripped (confidence 8) [566C59B9] (AR v2)
Copy OK

Track 13

Filename C:Program Files (x86)Exact Audio CopyFlac13. Christmas Memories.wav

Pre-gap length 0:00:01.25

Peak level 87.7 %
Extraction speed 3.9 X
Track quality 100.0 %
Test CRC 0248AEBE
Copy CRC 0248AEBE
Accurately ripped (confidence 9) [0A388812] (AR v2)
Copy OK

All tracks accurately ripped

No errors occurred

End of status report

–– CUETools DB Plugin V2.1.6

[CTDB TOCID: uAvjH65cabHCc9scCab7VD.2ww8-] found
Submit result: uAvjH65cabHCc9scCab7VD.2ww8- has been confirmed
Track | CTDB Status
1 | (14/14) Accurately ripped
2 | (14/14) Accurately ripped
3 | (14/14) Accurately ripped
4 | (14/14) Accurately ripped
5 | (14/14) Accurately ripped
6 | (14/14) Accurately ripped
7 | (14/14) Accurately ripped
8 | (14/14) Accurately ripped
9 | (14/14) Accurately ripped
10 | (14/14) Accurately ripped
11 | (14/14) Accurately ripped
12 | (13/14) Accurately ripped
13 | (14/14) Accurately ripped

==== Log checksum 790F9075088038546C3CA100C8692362F4579AB697DFC32F56EF22EEE535E37D ====

DR log
foobar2000 1.2 / Dynamic Range Meter 1.1.1
log date: 2016-12-21 18:30:35

––––––––––––––––––––––––––––––––––––––––
Analyzed: Frank Sinatra / The Sinatra Christmas Album
––––––––––––––––––––––––––––––––––––––––

DR Peak RMS Duration Track
––––––––––––––––––––––––––––––––––––––––
DR10 -2.19 dB -15.63 dB 3:57 01-Have Yourself A Merry Little Christmas
DR10 -1.03 dB -14.52 dB 3:47 02-An Old Fashioned Christmas
DR10 -1.18 dB -13.81 dB 2:38 03-I Heard The Bells On Christmas Day
DR11 -1.33 dB -17.21 dB 3:04 04-The Little Drummer Boy
DR11 -0.16 dB -15.19 dB 3:24 05-Go Tell It On The Mountain (feat. Bing Crosby)
DR10 -0.33 dB -13.00 dB 2:15 06-We Wish You The Merriest (feat. Bing Crosby)
DR10 -1.71 dB -14.60 dB 3:06 07-Whatever Happened To Christmas?
DR9 -1.18 dB -13.96 dB 4:29 08-The Twelve Days Of Christmas (feat. Tina, Nancy & Frank, Jr.)
DR9 -0.90 dB -14.39 dB 3:41 09-The Bells Of Christmas (Greensleeves) (feat. Tina, Nancy & Frank, Jr.)
DR10 -1.44 dB -14.54 dB 2:54 10-I Wouldn’t Trade Christmas (feat. Tina, Nancy & Frank, Jr.)
DR9 -1.57 dB -14.88 dB 3:13 11-The Christmas Waltz
DR10 -3.04 dB -15.69 dB 2:47 12-A Baby Just Like You
DR11 -1.13 dB -16.36 dB 2:09 13-Christmas Memories
––––––––––––––––––––––––––––––––––––––––

Number of tracks: 13
Official DR value: DR10

Samplerate: 44100 Hz
Channels: 2
Bits per sample: 16
Bitrate: 815 kbps
Codec: FLAC
================================================================================

Frank Sinatra - The Sinatra Christmas Album (1994)

Frank Sinatra - The Sinatra Christmas Album (1994)

All thanks to original releaser – zamnix

More interesting music in My Blog

Frank Sinatra – The Sinatra Christmas Album (1994) Download, Warez, DDL, Free, Full Album, Torrent, Legal.

Download


  • Recent Posts

  • Recent Tags