Frank Sinatra – Duets & Duets II (1993/1994)

Download
Frank Sinatra - Duets & Duets II (1993/1994)

Frank Sinatra – Duets & Duets II (1993/1994)
EAC Rip | FLAC (Img) + Cue + Log ~ 589 Mb | MP3 CBR320 ~ 233 Mb
Full Scans (PNG, 400 dpi) ~ 389 Mb | RAR 5% Recovery
Vocal Jazz, Traditional Pop | Capitol Records #CDP 0777 7 89611 2 / CDP 7243 8 28103 2 2

Duets is an album by American singer Frank Sinatra, released in 1993. Recorded near the end of Sinatra’s career, it consists of electronically assembled duets between Sinatra and younger singers from various genres. The album was a commercial success, debuting at No. 2 on the Billboard albums chart, reaching No. 5 in the UK, and selling over 3 million copies in the US. It is the only Sinatra album to date to achieve triple platinum certification.

Duets II is the 57th and last studio album by American singer Frank Sinatra. It was released in 1994, and was the sequel to the previous year’s Duets. Phil Ramone produced the album and guest artists from various genres contributed their duet parts to Sinatra’s already recorded vocals. Though not as commercially successful as Duets, it still rose to #9 on the Billboard albums chart and sold over 1 million copies in the U.S. It also peaked at #29 in the UK. Critical notices were again mixed at best, although some viewed it as an improvement over its predecessor. However, the album won Sinatra the 1995 Grammy Award for Best Traditional Pop Vocal Performance, his last competitive Grammy Award. These would be the last studio recordings made by Sinatra, who had begun his recording career fifty five years earlier.

~ Wiki
Official Website | Wiki | Discogs | All Music

***************

Frank Sinatra - Duets & Duets II (1993/1994)

Frank Sinatra – Duets (1993)
EAC Rip | FLAC (Img) + Cue + Log ~ 277 Mb | MP3 CBR320 ~ 110 Mb
Scans (PNG, 400 dpi) ~ 195 Mb | RAR 5% Recovery
Capitol Records #CDP 0777 7 89611 2

Wiki | Discogs | All Music

***************

Frank Sinatra - Duets & Duets II (1993/1994)

Frank Sinatra - Duets & Duets II (1993/1994)

Track List CD1 – Duets (1993):

01. Frank Sinatra / Luther Vandross – The Lady Is A Tramp [3:25]
02. Frank Sinatra / Aretha Franklin – What Now My Love [3:15]
03. Frank Sinatra / Barbra Streisand – I’ve Got A Crush On You [3:24]
04. Frank Sinatra / Julio Iglesias – Summer Wind [2:33]
05. Frank Sinatra / Gloria Estefan – Come Rain Or Come Shine [4:04]
06. Frank Sinatra / Tony Bennett – New York, New York [3:30]
07. Frank Sinatra / Natalie Cole – They Can’t Take That Away From Me [3:11]
08. Frank Sinatra / Charles Azanvour – You Make Me Feel So Young [3:06]
09. Frank Sinatra / Carly SImon – Guess I’ll Hang My Tears Out To Dry | In The Wee … [3:57]
10. Frank Sinatra / Liza Minnelli – I’ve Got The World On A String [2:19]
11. Frank Sinatra / Anita Baker – Witchcraft [3:22]
12. Frank Sinatra / Bono – I’ve Got You Under My Skin [3:33]
13. Frank Sinatra / Kenny G – All The Way | One For My Baby (And One More For The R… [6:04]

EAC Log
Exact Audio Copy V1.0 beta 3 from 29. August 2011

EAC extraction logfile from 22. July 2017, 20:13

Frank Sinatra / Duets 1

Used drive : PIONEER BD-RW BDR-TD03 Adapter: 0 ID: 1

Read mode : Secure
Utilize accurate stream : Yes
Defeat audio cache : Yes
Make use of C2 pointers : No

Read offset correction : 667
Overread into Lead-In and Lead-Out : No
Fill up missing offset samples with silence : Yes
Delete leading and trailing silent blocks : No
Null samples used in CRC calculations : Yes
Used interface : Native Win32 interface for Win NT & 2000

Used output format : User Defined Encoder
Selected bitrate : 768 kBit/s
Quality : High
Add ID3 tag : No
Command line compressor : C:Program Files (x86)Exact Audio CopyFLACFLAC.EXE
Additional command line options : -6 -V -T "ARTIST=%artist%" -T "TITLE=%title%" -T "ALBUM=%albumtitle%" -T "DATE=%year%" -T "TRACKNUMBER=%tracknr%" -T "GENRE=%genre%" -T "COMMENT=%comment%" -T "BAND=%albuminterpret%" -T "ALBUMARTIST=%albuminterpret%" -T "COMPOSER=%composer%" %haslyrics%–tag-from-file=LYRICS="%lyricsfile%"%haslyrics% -T "DISCNUMBER=%cdnumber%" -T "TOTALDISCS=%totalcds%" -T "TOTALTRACKS=%numtracks%" %hascover%–picture="%coverfile%"%hascover% %source% -o %dest%

TOC of the extracted CD

Track | Start | Length | Start sector | End sector
––––––––––––––––––––––––––––-
1 | 0:00.00 | 3:24.47 | 0 | 15346
2 | 3:24.47 | 3:15.15 | 15347 | 29986
3 | 6:39.62 | 3:23.68 | 29987 | 45279
4 | 10:03.55 | 2:32.67 | 45280 | 56746
5 | 12:36.47 | 4:04.30 | 56747 | 75076
6 | 16:41.02 | 3:30.08 | 75077 | 90834
7 | 20:11.10 | 3:11.07 | 90835 | 105166
8 | 23:22.17 | 3:05.60 | 105167 | 119101
9 | 26:28.02 | 3:57.05 | 119102 | 136881
10 | 30:25.07 | 2:18.63 | 136882 | 147294
11 | 32:43.70 | 3:22.22 | 147295 | 162466
12 | 36:06.17 | 3:32.53 | 162467 | 178419
13 | 39:38.70 | 6:03.62 | 178420 | 205706

Range status and errors

Selected range

Filename C:UsersDerisDesktopSinatDuetCD1Frank Sinatra – Duets 1.wav

Peak level 99.7 %
Extraction speed 4.5 X
Range quality 100.0 %
Test CRC E17865DA
Copy CRC E17865DA
Copy OK

No errors occurred

AccurateRip summary

Track 1 accurately ripped (confidence 183) [354A7F7F] (AR v2)
Track 2 accurately ripped (confidence 184) [5847863F] (AR v2)
Track 3 accurately ripped (confidence 184) [6596D20C] (AR v2)
Track 4 accurately ripped (confidence 183) [846A4296] (AR v2)
Track 5 accurately ripped (confidence 183) [8CAC25EF] (AR v2)
Track 6 accurately ripped (confidence 181) [FA46FA87] (AR v2)
Track 7 accurately ripped (confidence 183) [30E93E3A] (AR v2)
Track 8 accurately ripped (confidence 182) [416F9A38] (AR v2)
Track 9 accurately ripped (confidence 179) [0153A2E5] (AR v2)
Track 10 accurately ripped (confidence 181) [8C0A9126] (AR v2)
Track 11 accurately ripped (confidence 182) [F1B2CB52] (AR v2)
Track 12 accurately ripped (confidence 181) [06D877B0] (AR v2)
Track 13 accurately ripped (confidence 178) [DADD2AFE] (AR v2)

All tracks accurately ripped

End of status report

–– CUETools DB Plugin V2.1.3

[CTDB TOCID: j6A1gxGq2IqeLyZZcYHPuxCZ4Is-] found, Submit result: j6A1gxGq2IqeLyZZcYHPuxCZ4Is- has been confirmed
[85bfe004] (346/385) Accurately ripped
[1502c7eb] (003/385) No match
[e3bea113] (001/385) No match
[64b828a7] (001/385) No match
[e2e3f42e] (001/385) No match
[5f180b0c] (001/385) No match
[7ae4c554] (001/385) No match
[dad2f9cf] (001/385) No match
[82a867ad] (001/385) No match
[8e384cc6] (001/385) No match
[20b0fc83] (001/385) No match
[479b9f78] (001/385) No match
[e812cfa7] (001/385) No match
[254d0bf9] (001/385) No match
[138c4ece] (001/385) No match
[26fccd37] (001/385) No match
[7315c2e2] (001/385) No match
[17d739a8] (001/385) No match
[c049624f] (001/385) No match
[72d981e1] (001/385) No match
[8cf812c0] (001/385) No match
[4ec1d2cf] (001/385) No match
[bf6a3d25] (001/385) No match
[aa0736fc] (001/385) No match
[93388997] (001/385) No match
[10b1acae] (001/385) No match
[613eb8c0] (001/385) No match
[8f89e816] (001/385) No match
[37fed8b1] (001/385) No match
[b56d8c32] (001/385) No match
[b6eb2ec5] (001/385) No match
[b7becb38] (001/385) No match
[e84653d2] (001/385) No match
[25d205e9] (001/385) No match
[15ee6db5] (001/385) No match
[f2cfb34a] (001/385) No match
[0f7167e7] (001/385) No match
[045bdc00] (001/385) No match

==== Log checksum 2FE1A1266078F518FB0228936DC222452FEA18DA114B7F574532E287105184D4 ====

DR Log
foobar2000 1.2.6 / Dynamic Range Meter 1.1.1
log date: 2017-07-29 17:49:10

––––––––––––––––––––––––––––––––––––––––
Analyzed: Frank Sinatra / Duets 1
––––––––––––––––––––––––––––––––––––––––

DR Peak RMS Duration Track
––––––––––––––––––––––––––––––––––––––––
DR12 -0.02 dB -13.41 dB 3:25 01-Frank Sinatra_Luther Vandross / The Lady Is A Tramp
DR10 -0.02 dB -12.89 dB 3:15 02-Frank Sinatra_Aretha Franklin / What Now My Love
DR11 -0.02 dB -14.16 dB 3:24 03-Frank Sinatra_Barbra Streisand / I’ve Got A Crush On You
DR13 -0.02 dB -15.76 dB 2:33 04-Frank Sinatra_Julio Iglesias / Summer Wind
DR12 -0.20 dB -15.61 dB 4:04 05-Frank Sinatra_Gloria Estefan / Come Rain Or Come Shine
DR11 -0.02 dB -13.22 dB 3:30 06-Frank Sinatra_Tony Bennett / New York, New York
DR11 -0.02 dB -13.30 dB 3:11 07-Frank Sinatra_Natalie Cole / They Can’t Take That Away From Me
DR11 -0.02 dB -13.48 dB 3:06 08-Frank Sinatra_Charles Azanvour / You Make Me Feel So Young
DR12 -0.38 dB -17.56 dB 3:57 09-Frank Sinatra_Carly SImon / Guess I’ll Hang My Tears Out To Dry | In The Wee …
DR11 -0.02 dB -13.69 dB 2:19 10-Frank Sinatra_Liza Minnelli / I’ve Got The World On A String
DR13 -0.02 dB -15.87 dB 3:22 11-Frank Sinatra_Anita Baker / Witchcraft
DR12 -0.02 dB -14.46 dB 3:33 12-Frank Sinatra_Bono / I’ve Got You Under My Skin
DR13 -0.03 dB -17.48 dB 6:04 13-Frank Sinatra_Kenny G / All The Way | One For My Baby (And One More For The R…
––––––––––––––––––––––––––––––––––––––––

Number of tracks: 13
Official DR value: DR12

Samplerate: 44100 Hz
Channels: 2
Bits per sample: 16
Bitrate: 807 kbps
Codec: FLAC
================================================================================

CUETools Log
[CUETools log; Date: 29.07.2017 17:49:03; Version: 2.1.5]
[CTDB TOCID: j6A1gxGq2IqeLyZZcYHPuxCZ4Is-] found.
Track | CTDB Status
1 | (380/389) Accurately ripped
2 | (383/389) Accurately ripped
3 | (383/389) Accurately ripped
4 | (385/389) Accurately ripped
5 | (382/389) Accurately ripped
6 | (383/389) Accurately ripped
7 | (381/389) Accurately ripped
8 | (375/389) Accurately ripped
9 | (379/389) Accurately ripped
10 | (382/389) Accurately ripped
11 | (379/389) Accurately ripped
12 | (382/389) Accurately ripped
13 | (370/389) Accurately ripped
[AccurateRip ID: 0014e0f9-00d165db-960ab60d] found.
Track [ CRC | V2 ] Status
01 [88e0e2a4|354a7f7f] (141+183/483) Accurately ripped
02 [8c593eb0|5847863f] (137+184/484) Accurately ripped
03 [594b440f|6596d20c] (137+184/483) Accurately ripped
04 [2a3d8801|846a4296] (140+183/485) Accurately ripped
05 [7e2c164c|8cac25ef] (139+183/482) Accurately ripped
06 [1711f960|fa46fa87] (140+181/486) Accurately ripped
07 [2ad88fb8|30e93e3a] (139+183/487) Accurately ripped
08 [ab2eb895|416f9a38] (137+182/481) Accurately ripped
09 [c689826c|0153a2e5] (137+179/477) Accurately ripped
10 [aa5a82c9|8c0a9126] (138+181/484) Accurately ripped
11 [d68129bc|f1b2cb52] (139+182/484) Accurately ripped
12 [ecd96dc1|06d877b0] (139+181/482) Accurately ripped
13 [483e7f5e|dadd2afe] (131+178/464) Accurately ripped
Offsetted by -2801:
01 [bf0d75bf] (015/483) Accurately ripped
02 [2535c3fa] (017/484) Accurately ripped
03 [4d2887a3] (017/483) Accurately ripped
04 [2e0cb509] (017/485) Accurately ripped
05 [fb955a4f] (017/482) Accurately ripped
06 [a6e09233] (017/486) Accurately ripped
07 [f6731b87] (017/487) Accurately ripped
08 [db32ebe4] (017/481) Accurately ripped
09 [43f95e9b] (016/477) Accurately ripped
10 [53ed2bf0] (017/484) Accurately ripped
11 [0ee73b69] (017/484) Accurately ripped
12 [e9ff3b01] (017/482) Accurately ripped
13 [6766912d] (017/464) Accurately ripped
Offsetted by -2745:
01 [5149a302] (002/483) Accurately ripped
02 [e53f4549] (002/484) Accurately ripped
03 [33bd3459] (002/483) Accurately ripped
04 [7508ac53] (002/485) Accurately ripped
05 [61267b48] (002/482) Accurately ripped
06 [b77356f9] (002/486) Accurately ripped
07 [da2aca9d] (002/487) Accurately ripped
08 [7034817e] (002/481) Accurately ripped
09 [ae4c9c42] (002/477) Accurately ripped
10 [13fdbc08] (002/484) Accurately ripped
11 [81dcd48e] (002/484) Accurately ripped
12 [3d7940ef] (002/482) Accurately ripped
13 [e995f632] (002/464) Accurately ripped
Offsetted by -2155:
01 [a6141419] (015/483) Accurately ripped
02 [afea1703] (016/484) Accurately ripped
03 [135a5fd7] (016/483) Accurately ripped
04 [7076297a] (016/485) Accurately ripped
05 [3b10e15a] (016/482) Accurately ripped
06 [9b5f8603] (016/486) Accurately ripped
07 [364328c9] (016/487) Accurately ripped
08 [98b84644] (016/481) Accurately ripped
09 [66149d3c] (015/477) Accurately ripped
10 [a6cad24b] (016/484) Accurately ripped
11 [fa1f7fed] (016/484) Accurately ripped
12 [c516a23a] (017/482) Accurately ripped
13 [d62bfd30] (015/464) Accurately ripped
Offsetted by -2069:
01 [1998ed05] (033/483) Accurately ripped
02 [0feb3197] (033/484) Accurately ripped
03 [cd54a712] (032/483) Accurately ripped
04 [6462a35c] (033/485) Accurately ripped
05 [2503276a] (032/482) Accurately ripped
06 [b85d68cf] (034/486) Accurately ripped
07 [1b109519] (035/487) Accurately ripped
08 [b079e98e] (033/481) Accurately ripped
09 [0c4edaea] (034/477) Accurately ripped
10 [85c9d99b] (034/484) Accurately ripped
11 [27d0c8ae] (033/484) Accurately ripped
12 [49396425] (033/482) Accurately ripped
13 [f743ccc9] (031/464) Accurately ripped
Offsetted by 227:
01 [31eab448] (014/483) Accurately ripped
02 [57ab9b9e] (014/484) Accurately ripped
03 [6b2d2c7d] (014/483) Accurately ripped
04 [e72aacad] (014/485) Accurately ripped
05 [844ea474] (014/482) Accurately ripped
06 [adb3bf90] (014/486) Accurately ripped
07 [89bdf572] (013/487) Accurately ripped
08 [4202fc95] (013/481) Accurately ripped
09 [1a240b1b] (014/477) Accurately ripped
10 [1e8281dc] (014/484) Accurately ripped
11 [c55cdfa9] (014/484) Accurately ripped
12 [35b0edaf] (014/482) Accurately ripped
13 [85c08aca] (012/464) Accurately ripped
Offsetted by -2733:
01 [ad1acb47] (000/483) No match (V2 was not tested)
02 [9568b68c] (000/484) No match (V2 was not tested)
03 [08388d5f] (000/483) No match (V2 was not tested)
04 [2692fefa] (000/485) No match (V2 was not tested)
05 [37818d96] (000/482) No match (V2 was not tested)
06 [76918de2] (000/486) No match (V2 was not tested)
07 [02c98065] (000/487) No match (V2 was not tested)
08 [75ccb9ab] (000/481) No match (V2 was not tested)
09 [67a17f84] (000/477) No match (V2 was not tested)
10 [c7b4eea2] (000/484) No match (V2 was not tested)
11 [148971fa] (000/484) No match (V2 was not tested)
12 [f280ed63] (000/482) No match (V2 was not tested)
13 [374c2e29] (000/464) No match (V2 was not tested)
Offsetted by -2197:
01 [e2703bc1] (000/483) No match (V2 was not tested)
02 [9a106a89] (000/484) No match (V2 was not tested)
03 [fde2fb9a] (000/483) No match (V2 was not tested)
04 [54277068] (000/485) No match (V2 was not tested)
05 [e707f1f8] (000/482) No match (V2 was not tested)
06 [c46406f2] (000/486) No match (V2 was not tested)
07 [1f8d17b0] (000/487) No match (V2 was not tested)
08 [20517692] (000/481) No match (V2 was not tested)
09 [1cd24905] (000/477) No match (V2 was not tested)
10 [c6dd12e4] (000/484) No match (V2 was not tested)
11 [d6e5f357] (000/484) No match (V2 was not tested)
12 [3b93dfad] (000/482) No match (V2 was not tested)
13 [0f5a891f] (000/464) No match (V2 was not tested)
Offsetted by -2167:
01 [938fa6eb] (000/483) No match (V2 was not tested)
02 [5bdc0455] (000/484) No match (V2 was not tested)
03 [ac3c73a9] (000/483) No match (V2 was not tested)
04 [07ed1257] (000/485) No match (V2 was not tested)
05 [b1f461c9] (000/482) No match (V2 was not tested)
06 [c4aaaa92] (000/486) No match (V2 was not tested)
07 [b68fbcff] (000/487) No match (V2 was not tested)
08 [b8694f5f] (000/481) No match (V2 was not tested)
09 [f58038c6] (000/477) No match (V2 was not tested)
10 [ed2bc73c] (000/484) No match (V2 was not tested)
11 [5753e6d4] (000/484) No match (V2 was not tested)
12 [d7f46ab1] (000/482) No match (V2 was not tested)
13 [c3c200ed] (000/464) No match (V2 was not tested)
Offsetted by -66:
01 [71585c6c] (000/483) No match (V2 was not tested)
02 [f6cd38b0] (000/484) No match (V2 was not tested)
03 [696e0212] (000/483) No match (V2 was not tested)
04 [b700cc3c] (000/485) No match (V2 was not tested)
05 [c1d32a20] (000/482) No match (V2 was not tested)
06 [4107fe93] (000/486) No match (V2 was not tested)
07 [f3d87de4] (000/487) No match (V2 was not tested)
08 [c38c9cc6] (000/481) No match (V2 was not tested)
09 [0426d89d] (000/477) No match (V2 was not tested)
10 [ae0a8d19] (000/484) No match (V2 was not tested)
11 [9e0cd89f] (000/484) No match (V2 was not tested)
12 [037ca9cd] (000/482) No match (V2 was not tested)
13 [3053c89c] (000/464) No match (V2 was not tested)

Track Peak [ CRC32 ] [W/O NULL] [ LOG ]
– 99,7 [E17865DA] [6F1065D1] CRC32
01 99,7 [8F157427] [A373A9AB]
02 99,7 [386FDFAC] [8C2F8A24]
03 99,7 [CCADE995] [2E92362A]
04 99,7 [F9AAF8FB] [CC65E979]
05 97,7 [0A514E0E] [1344982A]
06 99,7 [2CA82F50] [94F06D0E]
07 99,7 [C09EB066] [EBE8187D]
08 99,7 [80581892] [C15DD39C]
09 95,6 [37B92CC8] [925B9D38]
10 99,7 [A47CBDD0] [02F088EE]
11 99,7 [DF7ADEE7] [6FFE7DAD]
12 99,7 [9BD501B5] [0EFECAC4]
13 99,6 [3DEB5AE7] [37389483]

Frank Sinatra - Duets & Duets II (1993/1994)

***************

Frank Sinatra - Duets & Duets II (1993/1994)

Frank Sinatra – Duets II (1994)
EAC Rip | FLAC (Img) + Cue + Log ~ 311 Mb | MP3 CBR320 ~ 122 Mb
Scans (PNG, 400 dpi) ~ 194 Mb | RAR 5% Recovery
Capitol Records #CDP 7243 8 28103 2 2

Wiki | Discogs | All Music

***************

Frank Sinatra - Duets & Duets II (1993/1994)

Frank Sinatra - Duets & Duets II (1993/1994)

Track List CD2 – Duets II (1994):

01. Frank Sinatra / Gladys Knight & Stevie Wonder – For Once in My Life [3:18]
02. Frank Sinatra / Luis Miguel – Come Fly With Me [3:08]
03. Frank Sinatra / Patti LaBelle – Bewitched [3:31]
04. Frank Sinatra / Jon Secada – The Best Is Yet to Come [3:12]
05. Frank Sinatra / Linda Ronstadt – Moonlight in Vermont [4:07]
06. Frank Sinatra / Antonio Carlos Jobim – Fly Me to the Moon [3:06]
07. Frank Sinatra / Chrissie Hynde – Luck Be a Lady [5:17]
08. Frank Sinatra / Willie Nelson – A Foggy Day [2:24]
09. Frank Sinatra / Steve Lawrence & Eydie Gorme – Where or When [3:53]
10. Frank Sinatra / Lena Horne – Embraceable You [3:45]
11. Frank Sinatra / Jimmy Buffett – Mack the Knife [4:26]
12. Frank Sinatra / Lorrie Morgan – How Do You Keep the Music Playing? / My Funny Valentine [3:58]
13. Frank Sinatra / Frank Sinatra Jr. – My Kind of Town [2:36]
14. Frank Sinatra / Neil Diamond – The House I Live In (That’s America to Me) [4:14]

EAC Log
Exact Audio Copy V1.0 beta 3 from 29. August 2011

EAC extraction logfile from 22. July 2017, 20:47

Frank Sinatra / Duets II

Used drive : PIONEER BD-RW BDR-TD03 Adapter: 0 ID: 1

Read mode : Secure
Utilize accurate stream : Yes
Defeat audio cache : Yes
Make use of C2 pointers : No

Read offset correction : 667
Overread into Lead-In and Lead-Out : No
Fill up missing offset samples with silence : Yes
Delete leading and trailing silent blocks : No
Null samples used in CRC calculations : Yes
Used interface : Native Win32 interface for Win NT & 2000

Used output format : User Defined Encoder
Selected bitrate : 768 kBit/s
Quality : High
Add ID3 tag : No
Command line compressor : C:Program Files (x86)Exact Audio CopyFLACFLAC.EXE
Additional command line options : -6 -V -T "ARTIST=%artist%" -T "TITLE=%title%" -T "ALBUM=%albumtitle%" -T "DATE=%year%" -T "TRACKNUMBER=%tracknr%" -T "GENRE=%genre%" -T "COMMENT=%comment%" -T "BAND=%albuminterpret%" -T "ALBUMARTIST=%albuminterpret%" -T "COMPOSER=%composer%" %haslyrics%–tag-from-file=LYRICS="%lyricsfile%"%haslyrics% -T "DISCNUMBER=%cdnumber%" -T "TOTALDISCS=%totalcds%" -T "TOTALTRACKS=%numtracks%" %hascover%–picture="%coverfile%"%hascover% %source% -o %dest%

TOC of the extracted CD

Track | Start | Length | Start sector | End sector
––––––––––––––––––––––––––––-
1 | 0:00.00 | 3:18.30 | 0 | 14879
2 | 3:18.30 | 3:08.25 | 14880 | 29004
3 | 6:26.55 | 3:31.15 | 29005 | 44844
4 | 9:57.70 | 3:12.50 | 44845 | 59294
5 | 13:10.45 | 4:07.27 | 59295 | 77846
6 | 17:17.72 | 3:06.18 | 77847 | 91814
7 | 20:24.15 | 5:17.12 | 91815 | 115601
8 | 25:41.27 | 2:24.13 | 115602 | 126414
9 | 28:05.40 | 3:53.55 | 126415 | 143944
10 | 31:59.20 | 3:45.40 | 143945 | 160859
11 | 35:44.60 | 4:26.40 | 160860 | 180849
12 | 40:11.25 | 3:58.20 | 180850 | 198719
13 | 44:09.45 | 2:36.25 | 198720 | 210444
14 | 46:45.70 | 4:14.52 | 210445 | 229546

Range status and errors

Selected range

Filename C:UsersDerisDesktopkpnemo.euSinatDuetCD2Frank Sinatra – Duets II.wav

Peak level 99.9 %
Extraction speed 4.7 X
Range quality 100.0 %
Test CRC F8B388FC
Copy CRC F8B388FC
Copy OK

No errors occurred

AccurateRip summary

Track 1 accurately ripped (confidence 57) [5F61825C] (AR v2)
Track 2 accurately ripped (confidence 57) [5C42C97F] (AR v2)
Track 3 accurately ripped (confidence 56) [5CD1D599] (AR v2)
Track 4 accurately ripped (confidence 56) [625FF1DE] (AR v2)
Track 5 accurately ripped (confidence 55) [34C7B26C] (AR v2)
Track 6 accurately ripped (confidence 57) [13E89936] (AR v2)
Track 7 accurately ripped (confidence 57) [F34F8F75] (AR v2)
Track 8 accurately ripped (confidence 57) [4F901AFF] (AR v2)
Track 9 accurately ripped (confidence 56) [070A6F0C] (AR v2)
Track 10 accurately ripped (confidence 57) [2728166E] (AR v2)
Track 11 accurately ripped (confidence 57) [44C74A9C] (AR v2)
Track 12 accurately ripped (confidence 56) [9054AB65] (AR v2)
Track 13 accurately ripped (confidence 56) [64AC5C0B] (AR v2)
Track 14 accurately ripped (confidence 56) [2976229E] (AR v2)

All tracks accurately ripped

End of status report

–– CUETools DB Plugin V2.1.3

[CTDB TOCID: AcoerHVeRwzjsq2kc66ZbOmQFoA-] found, Submit result: AcoerHVeRwzjsq2kc66ZbOmQFoA- has been confirmed
[31a40f96] (111/122) Accurately ripped
[5b71b750] (001/122) No match
[f69b93c2] (001/122) No match
[feb7d4b4] (001/122) No match
[73231fb4] (001/122) No match
[75b8a17f] (001/122) No match
[a4bc227d] (001/122) No match
[6e3ee18b] (001/122) No match
[35a1e88f] (001/122) No match
[9952ff51] (001/122) No match
[2de82f85] (001/122) No match
[dfa0a473] (001/122) No match

==== Log checksum 7167005D64FA5FBE58663A785C4FF5D1DF3CB12C09FBA72937064275AB557A2C ====

DR Log
foobar2000 1.2.6 / Dynamic Range Meter 1.1.1
log date: 2017-07-29 17:47:47

––––––––––––––––––––––––––––––––––––––––
Analyzed: Frank Sinatra / Duets II
––––––––––––––––––––––––––––––––––––––––

DR Peak RMS Duration Track
––––––––––––––––––––––––––––––––––––––––
DR11 -0.01 dB -15.05 dB 3:18 01-For Once In My Life
DR11 -0.01 dB -14.46 dB 3:08 02-Come Fly With Me
DR10 -0.01 dB -15.37 dB 3:31 03-Bewitched
DR13 -0.01 dB -16.69 dB 3:13 04-The Best Is Yet To Come
DR12 -0.01 dB -15.88 dB 4:07 05-Moonlight In Vermont
DR13 -0.01 dB -16.56 dB 3:06 06-Fly Me To The Moon
DR12 -0.01 dB -14.73 dB 5:17 07-Luck Be A Lady
DR12 -0.01 dB -14.77 dB 2:24 08-A Foggy Day
DR10 -0.01 dB -13.74 dB 3:54 09-Where Or When
DR13 -0.01 dB -15.71 dB 3:46 10-Embraceable You
DR10 -0.01 dB -13.06 dB 4:27 11-Mack The Knife
DR14 -0.01 dB -17.89 dB 3:58 12-How Do You Keep The Music Playing? / My Funny Valentine
DR10 -0.01 dB -13.44 dB 2:36 13-My Kind Of Town
DR12 -0.01 dB -16.22 dB 4:15 14-The House I Live In (That’s America To Me)
––––––––––––––––––––––––––––––––––––––––

Number of tracks: 14
Official DR value: DR12

Samplerate: 44100 Hz
Channels: 2
Bits per sample: 16
Bitrate: 812 kbps
Codec: FLAC
================================================================================

CUETools Log
[CUETools log; Date: 29.07.2017 17:47:51; Version: 2.1.5]
[CTDB TOCID: AcoerHVeRwzjsq2kc66ZbOmQFoA-] found.
Track | CTDB Status
1 | (119/123) Accurately ripped
2 | (120/123) Accurately ripped
3 | (120/123) Accurately ripped
4 | (120/123) Accurately ripped
5 | (120/123) Accurately ripped
6 | (120/123) Accurately ripped
7 | (119/123) Accurately ripped
8 | (116/123) Accurately ripped
9 | (119/123) Accurately ripped
10 | (118/123) Accurately ripped
11 | (117/123) Accurately ripped
12 | (116/123) Accurately ripped
13 | (119/123) Accurately ripped
14 | (119/123) Accurately ripped
[AccurateRip ID: 0019b267-0114710a-be0bf40e] found.
Track [ CRC | V2 ] Status
01 [2531e487|5f61825c] (035+057/156) Accurately ripped
02 [f3e2cc39|5c42c97f] (035+057/157) Accurately ripped
03 [02b0c5fe|5cd1d599] (035+056/156) Accurately ripped
04 [5c3e0917|625ff1de] (035+056/156) Accurately ripped
05 [a05959e2|34c7b26c] (035+055/155) Accurately ripped
06 [a974ea5f|13e89936] (035+057/157) Accurately ripped
07 [f8764b94|f34f8f75] (035+057/157) Accurately ripped
08 [cbadcf47|4f901aff] (035+057/157) Accurately ripped
09 [ada8280a|070a6f0c] (035+056/156) Accurately ripped
10 [e118d857|2728166e] (035+057/157) Accurately ripped
11 [46cc4aec|44c74a9c] (035+057/157) Accurately ripped
12 [807b5b8b|9054ab65] (034+056/153) Accurately ripped
13 [11f3f896|64ac5c0b] (035+056/155) Accurately ripped
14 [ef0b85a1|2976229e] (034+056/155) Accurately ripped
Offsetted by -2084:
01 [8dea1233] (012/156) Accurately ripped
02 [ee30a9d5] (013/157) Accurately ripped
03 [8d0bd35e] (013/156) Accurately ripped
04 [53551e7f] (013/156) Accurately ripped
05 [320fbb92] (013/155) Accurately ripped
06 [1b01ca5f] (013/157) Accurately ripped
07 [67ebc178] (013/157) Accurately ripped
08 [283c7777] (013/157) Accurately ripped
09 [517e741a] (013/156) Accurately ripped
10 [cd88d733] (013/157) Accurately ripped
11 [726c0bb0] (013/157) Accurately ripped
12 [44b3f257] (011/153) Accurately ripped
13 [aed1b7e2] (013/155) Accurately ripped
14 [2e23fbe5] (014/155) Accurately ripped
Offsetted by 471:
01 [9cc27e52] (015/156) Accurately ripped
02 [07f7c580] (015/157) Accurately ripped
03 [c960fc56] (015/156) Accurately ripped
04 [866cc7b1] (015/156) Accurately ripped
05 [8af6c3ce] (015/155) Accurately ripped
06 [1ee7225f] (015/157) Accurately ripped
07 [05f7632d] (015/157) Accurately ripped
08 [cd7c5ed3] (015/157) Accurately ripped
09 [663ba78e] (015/156) Accurately ripped
10 [77d253ee] (015/157) Accurately ripped
11 [6675743d] (015/157) Accurately ripped
12 [194b309e] (015/153) Accurately ripped
13 [3ac8bbc9] (015/155) Accurately ripped
14 [31bca852] (015/155) Accurately ripped

Track Peak [ CRC32 ] [W/O NULL] [ LOG ]
– 99,9 [F8B388FC] [DE278B59] CRC32
01 99,9 [A477301E] [91707A0F]
02 99,9 [CFBD2EDF] [FA5B2ED7]
03 99,9 [B2F93624] [01C71B8D]
04 99,8 [08ADC59E] [E633F363]
05 99,9 [F10941E0] [2B57804D]
06 99,9 [B2A36ABD] [54A32C7F]
07 99,9 [36116797] [AEB4AA2C]
08 99,9 [44DA6F10] [C158030B]
09 99,9 [D69D78FA] [313EA48B]
10 99,9 [8094479F] [9668FF38]
11 99,9 [743F2463] [F328E209]
12 99,9 [FFAD49B8] [CB266A79]
13 99,9 [EEA8DE11] [A846F4DC]
14 99,9 [7F4A79B0] [D6D68A64]

Frank Sinatra - Duets & Duets II (1993/1994)

All thanks go to Boris1

>>> Frank Sinatra in my Blog <<<

Download from icerbox.com:

Frank Sinatra – Duets & Duets II (1993/1994) Download, Warez, DDL, Free, Full Album, Torrent, Legal.

Download