Francesco Rosi, Lorin Maazel, Orchestre National de France, Julia Migenes-Johnson – Bizet: Carmen (2011/1984) [Blu-Ray]

Download
Francesco Rosi, Lorin Maazel, Orchestre National de France, Julia Migenes-Johnson - Bizet: Carmen (2011/1984) [Blu-Ray]

Francesco Rosi, Lorin Maazel, Orchestre National de France, Julia Migenes-Johnson, Plácido Domingo, Ruggero Raimondi – Bizet: Carmen (2011/1984) [Blu-Ray]
BluRay | BDMV | MPEG-4 AVC Video / 25095 kbps / 1080i / 29,970 fps | 155 min | 41,8 Gb
Audio1: French / LPCM Audio / 2.0 / 16-bit | Audio2: DTS-HD Master Audio / 5.1 / 48 kHz / 1770 kbps / 16-bit | Audio3: Dolby Digital Audio / 5.1 / 48 kHz / 448 kbps / DN -4dB

BluRay-rip | AVC | MKV 1920×1080 / 4977 kbps / 29,97 fps | 155 min | 6,93 Gb
Audio: French / DTS / 6ch / 48.0 KHz / 16 bits
Classical | Gaumont / Second Sight | Sub: English

This movie version of Bizet’s popular opera Carmen was filmed on location, conveying a kind of atmosphere, a sense of space, movement, and presence that’s hard to achieve in a staged performance. It takes the action out of doors for many scenes, with the opening titles superimposed on the bloody conclusion of a bullfight. Elsewhere the changing of the guard, the crowd scenes, the dance number that opens Act 2, and the panoramic scenery of the smugglers’ mountain hideout all benefit from the freedom granted by movie cameras.
It’s an exciting Carmen, too, with a young-looking Placido Domingo in top form for a role he has sung hundreds of times. For Julia Migenes, though, it was her first performance in a role she would have trouble performing in an opera house. Her voice does not fit easily into Carmen’s range, and she spent months training it, very successfully, before singing the role in a recording studio where the soundtrack was taped before the film was shot. Casting her in the role was a gamble, but it worked; she is a convincing actress. Unlike most opera-house performances this movie version uses the opera’s original opera comique form with some spoken dialogue rather than recitatives. (Joe McLellan)

Cast:
Carmen – Julia Migenes-Johnson
Don José – Plácido Domingo
Escamillo – Ruggero Raimondi
Micaëla – Faith Esham
Moralès – François Le Roux
Zuniga – John Paul Bogart
Frasquita – Lilian Watson
Mércèdes – Susan Daniel
Le Dancaïre – Jean-Philippe Lafont
Le Remandado – Gérard Garino
Chœurs et Maîtrise de Radio France
Orchestre National de France
Conductor – Lorin Maazel
Director – Francesco Rosi

BDInfo
Disc Title: CARMEN
Disc Size: 44 888 781 600 bytes
Protection: AACS
BD-Java: No
Playlist: 00000.MPLS
Size: 35 702 705 856 bytes
Length: 2:35:05.000
Total Bitrate: 30,70 Mbps
Video: MPEG-4 AVC Video / 25095 kbps / 1080p / 24 fps / 16:9 / High Profile 4.1
Audio: English / LPCM Audio / 2.0 / 48 kHz / 1536 kbps / 16-bit
Audio: English / Dolby Digital Audio / 5.1 / 48 kHz / 448 kbps / DN -4dB
Audio: English / DTS-HD Master Audio / 5.1 / 48 kHz / 1770 kbps / 16-bit (DTS Core: 5.1 / 48 kHz / 1509 kbps / 16-bit)
Subtitle: English / 26,855 kbps

MediaInfo
General
Unique ID : 236418557271247017458981003648301874666 (0xB1DC8ED199C529B5B81F0AAD4CED3DEA)
Complete name : C:Carmen.mkv
Format : Matroska
Format version : Version 2
File size : 6.94 GiB
Duration : 2h 35mn
Overall bit rate : 6 379 Kbps
Movie name : Carmen
Encoded date : UTC 2016-06-13 10:30:34
Writing application : DVDFab 9.1.6.8
Writing library : libebml v0.7.8 + libmatroska v0.8.1

Video
ID : 1
Format : AVC
Format/Info : Advanced Video Codec
Format profile : High@L4.1
Format settings, CABAC : Yes
Format settings, ReFrames : 2 frames
Codec ID : V_MPEG4/ISO/AVC
Duration : 2h 35mn
Bit rate : 4 977 Kbps
Width : 1 920 pixels
Height : 1 080 pixels
Display aspect ratio : 16:9
Frame rate mode : Constant
Frame rate : 24.000 fps
Color space : YUV
Chroma subsampling : 4:2:0
Bit depth : 8 bits
Scan type : Progressive
Bits/(Pixel*Frame) : 0.100
Stream size : 5.16 GiB (74%)
Writing library : x264 core 142
Encoding settings : cabac=1 / ref=1 / deblock=1:-1:-1 / analyse=0x3:0 / me=hex / subme=5 / psy=0 / mixed_ref=0 / me_range=16 / chroma_me=1 / trellis=0 / 8x8dct=1 / cqm=0 / deadzone=21,11 / fast_pskip=1 / chroma_qp_offset=0 / threads=8 / lookahead_threads=2 / sliced_threads=0 / nr=0 / decimate=1 / interlaced=0 / bluray_compat=0 / constrained_intra=0 / bframes=2 / b_pyramid=0 / b_adapt=1 / b_bias=0 / direct=1 / weightb=1 / open_gop=0 / weightp=0 / keyint=24 / keyint_min=13 / scenecut=40 / intra_refresh=0 / rc=abr / mbtree=0 / bitrate=4977 / ratetol=1.0 / qcomp=0.60 / qpmin=0 / qpmax=69 / qpstep=4 / ip_ratio=1.40 / pb_ratio=1.30 / aq=1:1.00
Default : Yes
Forced : No
Color primaries : BT.709
Transfer characteristics : BT.709
Matrix coefficients : BT.709
Color range : Limited

Audio
ID : 2
Format : DTS
Format/Info : Digital Theater Systems
Mode : 16
Format settings, Endianness : Big
Codec ID : A_DTS
Duration : 2h 35mn
Bit rate mode : Constant
Bit rate : 1 509 Kbps
Channel(s) : 6 channels
Channel positions : Front: L C R, Side: L R, LFE
Sampling rate : 48.0 KHz
Bit depth : 16 bits
Compression mode : Lossy
Stream size : 1.64 GiB (24%)
Language : English
Default : Yes
Forced : No

Text
ID : 3
Format : VobSub
Codec ID : S_VOBSUB
Codec ID/Info : The same subtitle format used on DVDs
Language : English
Default : Yes
Forced : No

Menu
00:00:00.000 : en:Chapter 01
00:03:29.125 : en:Chapter 02
00:07:37.375 : en:Chapter 03
00:13:58.250 : en:Chapter 04
00:17:50.000 : en:Chapter 05
00:24:04.791 : en:Chapter 06
00:31:04.500 : en:Chapter 07
00:40:29.500 : en:Chapter 08
00:44:18.208 : en:Chapter 09
00:47:20.000 : en:Chapter 10
00:55:11.333 : en:Chapter 11
01:04:41.333 : en:Chapter 12
01:11:04.833 : en:Chapter 13
01:17:15.458 : en:Chapter 14
01:32:19.791 : en:Chapter 15
01:37:18.416 : en:Chapter 16
01:42:53.875 : en:Chapter 17
01:50:32.250 : en:Chapter 18
01:52:20.166 : en:Chapter 19
01:57:22.916 : en:Chapter 20
02:10:16.750 : en:Chapter 21
02:21:17.375 : en:Chapter 22
02:30:42.125 : en:Chapter 23
02:35:04.625 : en:Chapter 24

All screenshots taken from BDRip

Francesco Rosi, Lorin Maazel, Orchestre National de France, Julia Migenes-Johnson - Bizet: Carmen (2011/1984) [Blu-Ray]

Francesco Rosi, Lorin Maazel, Orchestre National de France, Julia Migenes-Johnson – Bizet: Carmen (2011/1984) [Blu-Ray] Download, Warez, DDL, Free, Full Album, Torrent, Legal.

Download