Foxygen – Hang (2017)

Download
Foxygen - Hang (2017)

Foxygen – Hang
Psychedelic Rock, Indie Pop | FLAC (tracks)+cue, front cover | 32:15 min | 225 MB
Label: Jagjaguwar | Tracks: 08 | Rls.date: 2017

Hang is the new album from Foxygen, the duo of Sam France and Jonathan Rado, featuring lead single, “Follow The Leader”. On their first proper studio record, the Los Angeles pair once again present their uncanny knack for pulling together myriad strands of influences to an elaborate, uncompromising vision. Every song on Hang features a 40-plus-piece symphony orchestra arranged and conducted by Trey Pollard with additional arranging from Matthew E. White. Additionally, Hang was recorded with the brother rhythm section duo of Brian and Michael D’Addario, also known as the Lemon Twigs, and features Steven Drozd of the Flaming Lips on select tracks. Written and produced entirely by Foxygen, Hang was recorded on 2” tape at Electro Vox Studios in Los Angeles.

TRACKLIST
1. Follow the Leader (04:13)
2. Avalon (03:46)
3. Mrs. Adams (04:29)
4. America (05:18)
5. On Lankershim (02:58)
6. Upon a Hill (01:37)
7. Trauma (04:44)
8. Rise Up (05:10)

XLD Log
X Lossless Decoder version 20161007 (149.3)

XLD extraction logfile from 2017-02-02 12:27:58 +0100

Foxygen / Hang

Used drive : HL-DT-ST DVDRW GS41N (revision UA04)
Media type : Pressed CD

Ripper mode : XLD Secure Ripper
Disable audio cache : OK for the drive with a cache less than 1375KiB
Make use of C2 pointers : NO
Read offset correction : 6
Max retry count : 20
Gap status : Analyzed, Appended (except HTOA)

TOC of the extracted CD
Track | Start | Length | Start sector | End sector
––––––––––––––––––––––––––––-
1 | 00:00:00 | 04:13:17 | 0 | 18991
2 | 04:13:17 | 03:46:37 | 18992 | 35978
3 | 07:59:54 | 04:30:57 | 35979 | 56285
4 | 12:30:36 | 05:21:13 | 56286 | 80373
5 | 17:51:49 | 02:58:68 | 80374 | 93791
6 | 20:50:42 | 01:37:11 | 93792 | 101077
7 | 22:27:53 | 04:46:15 | 101078 | 122542
8 | 27:13:68 | 05:10:24 | 122543 | 145816

AccurateRip Summary
Disc not found in AccurateRip DB.

All Tracks
Album gain : -7.41 dB
Peak : 1.000000
Statistics
Read error : 0
Jitter error (maybe fixed) : 0
Retry sector count : 0
Damaged sector count : 0

Track 01
Filename : /Users/Edoardo/Desktop/Foxygen – Hang (2017) [FLAC]/01 Follow the Leader.flac
Pre-gap length : 00:02:00

Track gain : -6.89 dB
Peak : 1.000000
CRC32 hash (test run) : 6B44B1AC
CRC32 hash : 6B44B1AC
CRC32 hash (skip zero) : FB0C15E9
AccurateRip v1 signature : 8D7469FF
AccurateRip v2 signature : 1D8349AC
->Track not present in AccurateRip database.
Statistics
Read error : 0
Jitter error (maybe fixed) : 0
Retry sector count : 0
Damaged sector count : 0

Track 02
Filename : /Users/Edoardo/Desktop/Foxygen – Hang (2017) [FLAC]/02 Avalon.flac

Track gain : -7.81 dB
Peak : 1.000000
CRC32 hash (test run) : B6F1004B
CRC32 hash : B6F1004B
CRC32 hash (skip zero) : 9DA5DB06
AccurateRip v1 signature : BA28F3AC
AccurateRip v2 signature : 4235A899
->Track not present in AccurateRip database.
Statistics
Read error : 0
Jitter error (maybe fixed) : 0
Retry sector count : 0
Damaged sector count : 0

Track 03
Filename : /Users/Edoardo/Desktop/Foxygen – Hang (2017) [FLAC]/03 Mrs. Adams.flac
Pre-gap length : 00:00:35

Track gain : -8.26 dB
Peak : 1.000000
CRC32 hash (test run) : 32A47B08
CRC32 hash : 32A47B08
CRC32 hash (skip zero) : B41A4B99
AccurateRip v1 signature : 7B797E2B
AccurateRip v2 signature : 527B622A
->Track not present in AccurateRip database.
Statistics
Read error : 0
Jitter error (maybe fixed) : 0
Retry sector count : 0
Damaged sector count : 0

Track 04
Filename : /Users/Edoardo/Desktop/Foxygen – Hang (2017) [FLAC]/04 America.flac
Pre-gap length : 00:01:27

Track gain : -6.31 dB
Peak : 1.000000
CRC32 hash (test run) : B7D7280D
CRC32 hash : B7D7280D
CRC32 hash (skip zero) : 10FE67FC
AccurateRip v1 signature : F4A47D7C
AccurateRip v2 signature : D195B360
->Track not present in AccurateRip database.
Statistics
Read error : 0
Jitter error (maybe fixed) : 0
Retry sector count : 0
Damaged sector count : 0

Track 05
Filename : /Users/Edoardo/Desktop/Foxygen – Hang (2017) [FLAC]/05 On Lankershim.flac
Pre-gap length : 00:02:40

Track gain : -5.93 dB
Peak : 1.000000
CRC32 hash (test run) : 8C9DCB7B
CRC32 hash : 8C9DCB7B
CRC32 hash (skip zero) : 1B8E8EF9
AccurateRip v1 signature : 150530EF
AccurateRip v2 signature : 3CE24096
->Track not present in AccurateRip database.
Statistics
Read error : 0
Jitter error (maybe fixed) : 0
Retry sector count : 0
Damaged sector count : 0

Track 06
Filename : /Users/Edoardo/Desktop/Foxygen – Hang (2017) [FLAC]/06 Upon a Hill.flac

Track gain : -6.90 dB
Peak : 1.000000
CRC32 hash (test run) : DE7008FF
CRC32 hash : DE7008FF
CRC32 hash (skip zero) : 562C10AC
AccurateRip v1 signature : 2126E415
AccurateRip v2 signature : FE15FCA5
->Track not present in AccurateRip database.
Statistics
Read error : 0
Jitter error (maybe fixed) : 0
Retry sector count : 0
Damaged sector count : 0

Track 07
Filename : /Users/Edoardo/Desktop/Foxygen – Hang (2017) [FLAC]/07 Trauma.flac

Track gain : -7.53 dB
Peak : 1.000000
CRC32 hash (test run) : 6C7EF978
CRC32 hash : 6C7EF978
CRC32 hash (skip zero) : CC9A9612
AccurateRip v1 signature : 141FDF15
AccurateRip v2 signature : B79E8AE5
->Track not present in AccurateRip database.
Statistics
Read error : 0
Jitter error (maybe fixed) : 0
Retry sector count : 0
Damaged sector count : 0

Track 08
Filename : /Users/Edoardo/Desktop/Foxygen – Hang (2017) [FLAC]/08 Rise Up.flac
Pre-gap length : 00:01:39

Track gain : -7.67 dB
Peak : 1.000000
CRC32 hash (test run) : AD9CA822
CRC32 hash : AD9CA822
CRC32 hash (skip zero) : AA5AD2A9
AccurateRip v1 signature : D0DA5D81
AccurateRip v2 signature : 15B1FCAE
->Track not present in AccurateRip database.
Statistics
Read error : 0
Jitter error (maybe fixed) : 0
Retry sector count : 0
Damaged sector count : 0

No errors occurred

End of status report

––-BEGIN XLD SIGNATURE––-
ORfSUJH2Wu0Bwwni7c56EbUoIo2ZHvOpnLUoEQvizMp7F.fQS6pnNfvghzUW6uVW1BOV3PlnFkjsRZwHUY_spMGDuFhFgMBWeWHFAlC
––-END XLD SIGNATURE––-

Thanks to the Original customer.

Foxygen – Hang (2017) Download, Warez, DDL, Free, Full Album, Torrent, Legal.

Download