Fort Worth SO, Miguel Harth-Bedoya – Lutoslawski: Concerto for Orchestra; Brahms-Schoenberg: Piano Quartet No.1 (2016)

Download
Fort Worth SO, Miguel Harth-Bedoya - Lutoslawski: Concerto for Orchestra; Brahms-Schoenberg: Piano Quartet No.1 (2016)

Witold Lutosławski: Concerto for Orchestra
Johannes Brahms: Piano Quartet No.1 in G minor, Op. 25 (orch. Arnold Schoenberg)
Fort Worth Symphony Orchestra; Miguel Harth-Bedoya, conductor

EAC | FLAC | Image (Cue&Log) ~ 313 Mb | Mp3 (CBR320) ~ 169 Mb | Artwork included
Classical | Label: Harmonia Mundi USA | # HMU807668 | Time: 01:11:40

On his fourth recording for harmonia mundi, GRAMMY-nominated conductor Miguel Harth-Bedoya leads the Fort Worth Symphony Orchestra in an all-orchestral program featuring Witold Lutoslawski’s Concerto for Orchestra and Arnold Schoenberg’s orchestration of Brahms’s Piano Quartet No.1. With its use of folk melodies to generate tremendous momentum and dramatic impact, the Concerto for Orchestra established Lutoslawski as Poland’s leading contemporary composer. Harth-Bedoya couples this powerful and complex score with Schoenberg’s rich and colorful arrangement of one of Brahms’s most popular chamber works.

Lutoslawski’s Concerto for Orchestra (1954) has become a classic, with several fine recordings available. This new entry to the catalogue shines out with its precision, vigour and clarity of sound. The Intrada, taken briskly here, instantly grabs your attention. Glistening woodwind flurries and string skitters and cascades are deftly executed in the second-movement scherzo (Capriccio notturno ed Arioso: Vivace). These feel like preludes to the big final movement with its mysterious passacaglia and brilliant climax. Schoenberg’s orchestrations of Brahms always merit revisiting, not least because the odd alliance of these two contrasting composers is always so unexpected. A seriously interesting and worthwhile disc.

Review by Fiona Maddocks, The Guardian

Fort Worth SO, Miguel Harth-Bedoya - Lutoslawski: Concerto for Orchestra; Brahms-Schoenberg: Piano Quartet No.1 (2016)

Miguel Harth-Bedoya at Allmusic
Miguel Harth-Bedoya Website
Miguel Harth-Bedoya at Wiki

Fort Worth Symphony Orchestra
Miguel Harth-Bedoya, conductor

Tracklist:

Witold Lutosławski (1913–1994)
Concerto for Orchestra (1954)
01. I. Intrada. Allegro maestoso (7:02)
02. II. Capriccio notturno ed Arioso. Vivace (5:42)
03. III. Passacaglia, Toccata e Corale. Andante con moto (15:31)

Johannes Brahms (1833–1897)
(orch. Arnold Schoenberg, 1937)
Piano Quartet No. 1 in G minor, Op. 25 (1861)
04. I. Allegro (14:08)
05. II. Intermezzo. Allegro ma non troppo (8:34)
06. III. Andante con moto (11:34)
07. IV. Rondo alla zingarese. Presto (9:09)

EAC log
Exact Audio Copy V1.1 from 23. June 2015

EAC extraction logfile from 4. October 2016, 8:51

Fort Worth Symphony Orchestra, Miguel Harth-Bedoya / Lutoslawski – Concerto for Orchestra; Brahms-Schoenberg – Quartet, Op.25

Used drive : HL-DT-STDVDRAM GU70N Adapter: 1 ID: 0

Read mode : Secure
Utilize accurate stream : Yes
Defeat audio cache : Yes
Make use of C2 pointers : No

Read offset correction : 48
Overread into Lead-In and Lead-Out : No
Fill up missing offset samples with silence : Yes
Delete leading and trailing silent blocks : No
Null samples used in CRC calculations : Yes
Used interface : Native Win32 interface for Win NT & 2000

Used output format : User Defined Encoder
Selected bitrate : 128 kBit/s
Quality : High
Add ID3 tag : No
Command line compressor : C:Program Files (x86)Exact Audio CopyFlacflac.exe
Additional command line options : -V -8 -T "Date=%year%" -T "Genre=%genre%" %source%

TOC of the extracted CD

Track | Start | Length | Start sector | End sector
––––––––––––––––––––––––––––-
1 | 0:00.00 | 7:02.04 | 0 | 31653
2 | 7:02.04 | 5:41.71 | 31654 | 57299
3 | 12:44.00 | 15:31.15 | 57300 | 127139
4 | 28:15.15 | 14:08.29 | 127140 | 190768
5 | 42:23.44 | 8:33.52 | 190769 | 229295
6 | 50:57.21 | 11:34.30 | 229296 | 281375
7 | 62:31.51 | 9:08.39 | 281376 | 322514

Range status and errors

Selected range

Filename C:tempHMU807668 – Lutoslawski – Concerto for Orchestra; Brahms-Schoenberg – Quartet, Op.25Lutoslawski – Concerto for Orchestra; Brahms-Schoenberg – Quartet, Op.25.wav

Peak level 100.0 %
Extraction speed 2.3 X
Range quality 100.0 %
Test CRC 23450433
Copy CRC 23450433
Copy OK

No errors occurred

AccurateRip summary

Track 1 not present in database
Track 2 not present in database
Track 3 not present in database
Track 4 not present in database
Track 5 not present in database
Track 6 not present in database
Track 7 not present in database

None of the tracks are present in the AccurateRip database

End of status report

==== Log checksum 229B63C7F2BCD8AF5461DCE2862E99E5854FC5C5D039C95CE823266E63D8A4F0 ====

DR log
foobar2000 1.2 / Dynamic Range Meter 1.1.1
log date: 2017-07-14 03:47:13

––––––––––––––––––––––––––––––––––––––––
Analyzed: Fort Worth Symphony Orchestra, Miguel Harth-Bedoya / Lutoslawski – Concerto for Orchestra; Brahms-Schoenberg – Quartet, Op.25
––––––––––––––––––––––––––––––––––––––––

DR Peak RMS Duration Track
––––––––––––––––––––––––––––––––––––––––
DR14 -0.48 dB -20.20 dB 7:02 01-Lutoslawski: Concerto for Orchestra – I. Intrada. Allegro maestoso
DR17 -0.38 dB -24.37 dB 5:42 02-Lutoslawski: Concerto for Orchestra – II. Capriccio notturno ed Arioso. Vivace
DR13 -0.24 dB -18.61 dB 15:31 03-Lutoslawski: Concerto for Orchestra – III. Passacaglia, Toccata e Corale. Andante con moto
DR14 -1.02 dB -20.84 dB 14:08 04-Brahms (orch. Schoenberg): Piano Quartet No.1, Op. 25 – I. Allegro
DR15 -2.44 dB -25.40 dB 8:34 05-Brahms (orch. Schoenberg): Piano Quartet No.1, Op. 25 – II. Intermezzo. Allegro ma non troppo
DR15 0.00 dB -19.93 dB 11:34 06-Brahms (orch. Schoenberg): Piano Quartet No.1, Op. 25 – III. Andante con moto
DR14 -0.74 dB -19.70 dB 9:09 07-Brahms (orch. Schoenberg): Piano Quartet No.1, Op. 25 – IV. Rondo alla zingarese. Presto
––––––––––––––––––––––––––––––––––––––––

Number of tracks: 7
Official DR value: DR14

Samplerate: 44100 Hz
Channels: 2
Bits per sample: 16
Bitrate: 600 kbps
Codec: FLAC
================================================================================

Fort Worth SO, Miguel Harth-Bedoya - Lutoslawski: Concerto for Orchestra; Brahms-Schoenberg: Piano Quartet No.1 (2016)

All thanks to original releaser – A-Z

More interesting music in My Blog

Fort Worth SO, Miguel Harth-Bedoya – Lutoslawski: Concerto for Orchestra; Brahms-Schoenberg: Piano Quartet No.1 (2016) Download, Warez, DDL, Free, Full Album, Torrent, Legal.

Download