Forrest Gump – The Soundtrack: 34 American Classics On 2 CDs (1994) Special Collectors' Edition 2001

Download
Forrest Gump - The Soundtrack: 34 American Classics On 2 CDs (1994) Special Collectors' Edition 2001

Forrest Gump – The Soundtrack: 34 American Classics On 2 CDs (2001) Special Collectors’ Edition
EAC | FLAC | Image (Cue&Log) ~ 766 Mb (incl 5%) | Mp3 (CBR320) ~ 277 Mb (incl 5%) | Scans ~ 159 Mb
Soundtrack, Rock, Folk, R&B, Rock & Roll | Label: Epic/Legacy/Sony | # E2K 85932 | Time: 01:55:26

Forrest Gump (1994) is one of the most successful films ever made, winning Tom Hanks his second successive Best Actor Oscar (he won the previous year for Philadelphia) as well as claiming the Best Picture Oscar and many other awards and nominations, including several for music. A unique fable of American life from the 1950s to the 80s, the film blends comedy, drama, war, romance and groundbreaking special effects into a social and political portrait of the passing years, all seen through the eyes of the intellectually challenged but immensely likeable Forrest Gump. The soundtrack is a double album featuring 31 classic pop tunes plus a suite from Alan Silvestri’s rich orchestral music, represented more completely on the companion score album. Opening with Elvis Presley’s "Hound Dog", this is a fine anthology of three decades of American music, taking in everything from Joan Baez’s "Blowin’ In The Wind" to Aretha Franklin’s "Respect", The Mammas and The Papas’ "California Dreamin’" and Simon & Garfunkel’s "Mrs. Robinson". Here also is Scott McKenzie with "San Francisco", plus Jefferson Airplane, the Supremes, Lynyrd Skynrd and many more. Like American Graffiti (1973), this is one of the great pop soundtracks, happily at home in just about any music collection.

Review by Gary S. Dalkin

The surprise hit of the 1994 summer movie season traces the life of a half-wit through the major historical events of the 1950s, ’60s, and ’70s, and this soundtrack album is a travelogue of the same period, from Elvis Presley’s 1956 hit "Hound Dog" to Bob Seger’s 1980 hit "Against the Wind." Like the movie, the soundtrack to Forrest Gump succeeds at repackaging the familiar – in the film, we revisit everything from desegregation and the Vietnam War to the self-centered trends of the ’70s, and on the soundtrack, we hear the concurrent hits for the umpteenth time – although, unlike the movie, the soundtrack doesn’t trivialize what it recycles. Playing it is basically like listening to an oldies radio station, minus the commercials and annoying DJ patter, but just like many other song-oriented soundtracks, this is still a miscellaneous collection. That, however, didn’t keep it from shooting into the Top Ten as the movie became a blockbuster. The double-CD version contains eight more tracks than the cassette.

Review by William Ruhlmann, Allmusic.com

Forrest Gump - The Soundtrack: 34 American Classics On 2 CDs (1994) Special Collectors' Edition 2001

Film at Wiki
Film at IMDB

Tracklist:

CD1:

01. Elvis Presley – Hound Dog (2:16)
02. Duane Eddy – Rebel Rouser (2:23)
03. Clarence Frogman Henry – (I Don’t Know Why) But I Do (2:19)
04. The Rooftop Singers – Walk Right In (2:34)
05. Wilson Pickett – Land Of 1000 Dances (2:25)
06. Joan Baez – Blowin’ In The Wind (2:37)
07. Creedence Clearwater Revival – Fortunate Son (2:18)
08. The Four Tops – I Can’t Help Myself (Sugar Pie Honey Bunch) (2:43)
09. Aretha Franklin – Respect (2:27)
10. Bob Dylan – Rainy Day Women #12 & 35 (4:35)
11. The Beach Boys – Sloop John B (2:56)
12. The Mamas And The Papas – California Dreamin’ (2:39)
13. Buffalo Springfield – For What It’s Worth (2:38)
14. Jackie DeShannon – What The World Needs Now Is Love (3:13)
15. The Doors – Break On Through (To The Other Side) (2:27)
16. Simon and Garfunkel – Mrs. Robinson (3:51)

CD2:

01. Jefferson Airplane – Volunteers (2:04)
02. The Youngbloods – Let’s Get Together (4:37)
03. Scott McKenzie – San Francisco (Be Sure To Wear Some Flowers In Your Hair) (2:59)
04. The Byrds – Turn! Turn! Turn! (To Everything There Is A Season) (3:55)
05. The Fifth Dimension – Medley: Aquarius – Let the Sunshine In (4:48)
06. Harry Nilsson – Everybody’s Talkin’ (2:45)
07. Three Dog Night – Joy To The World (3:16)
08. The Supremes – Stoned Love (2:59)
09. B. J. Thomas – Raindrops Keep Falling On My Head (3:00)
10. Randy Newman – Mr. President (Have Pitty On The Working Man) (2:46)
11. Lynyrd Skynyrd – Sweet Home Alabama (4:44)
12. Jackson Browne – Running On Empty (4:56)
13. The Doobie Brothers – It Keeps You Runnin’ (4:14)
14. Gladys Knight & The Pips – I’ve Got To Use My Imagination (3:30)
15. Fleetwood Mac – Go Your Own Way (3:39)
16. Willie Nelson – On The Road Again (2:30)
17. Bob Seger & The Silver Bullet Band – Against The Wind (5:33)
18. Alan Silvestri – Forrest Gump Suite (8:50)

EAC log CD1
Exact Audio Copy V0.99 prebeta 5 from 4. May 2009

Отчёт EAC об извлечении, выполненном 19. апреля 2011, 19:58

Various / Forrest Gump (Collectors Edition Disc 1) (E2K 85932)

Дисковод: ASUS DRW-24B1ST Adapter: 3 ID: 0

Режим чтения : Достоверность
Использование точного потока : Да
Отключение кэша аудио : Да
Использование указателей C2 : Нет

Коррекция смещения при чтении : 6
Способность читать области Lead-in и Lead-out : Нет
Заполнение пропущенных сэмплов тишиной : Да
Удаление блоков с тишиной в начале и конце : Нет
При вычислениях CRC использовались нулевые сэмплы : Да
Интерфейс : Встроенный Win32-интерфейс для Win NT/2000

Выходной формат : Внутренние WAV-операции
Формат сэмплов : 44.100 Гц; 16 бит; стерео

TOC извлечённого CD

Трек | Старт | Длительность | Начальный сектор | Конечный сектор
––––––––––––––––––––––––––––––––––-
1 | 0:00.00 | 2:15.73 | 0 | 10197
2 | 2:15.73 | 2:22.52 | 10198 | 20899
3 | 4:38.50 | 2:18.55 | 20900 | 31304
4 | 6:57.30 | 2:33.50 | 31305 | 42829
5 | 9:31.05 | 2:25.18 | 42830 | 53722
6 | 11:56.23 | 2:36.50 | 53723 | 65472
7 | 14:32.73 | 2:18.05 | 65473 | 75827
8 | 16:51.03 | 2:43.22 | 75828 | 88074
9 | 19:34.25 | 2:27.18 | 88075 | 99117
10 | 22:01.43 | 4:35.10 | 99118 | 119752
11 | 26:36.53 | 2:56.22 | 119753 | 132974
12 | 29:33.00 | 2:39.33 | 132975 | 144932
13 | 32:12.33 | 2:38.32 | 144933 | 156814
14 | 34:50.65 | 3:13.00 | 156815 | 171289
15 | 38:03.65 | 2:27.13 | 171290 | 182327
16 | 40:31.03 | 3:50.55 | 182328 | 199632

Характеристики диапазона извлечения и сообщения об ошибках

Выбранный диапазон

Имя файла D:Music!MyCDRips(wav)OSTForrest Gump (Special Collectors Edition) (E2K 85932)Disc 1Various – Forrest Gump (Collectors Edition Disc 1) (E2K 85932).wav

Пиковый уровень 98.8 %
Качество диапазона 100.0 %
CRC теста 7CA89822
CRC копии 7CA89822
Копирование… OK

Ошибок не произошло

AccurateRip: сводка

Трек 1 точное извлечение (доверие 4) [8A4B898F]
Трек 2 точное извлечение (доверие 4) [D7ED4661]
Трек 3 точное извлечение (доверие 4) [A8AB6526]
Трек 4 точное извлечение (доверие 4) [DBA375E6]
Трек 5 точное извлечение (доверие 4) [3394708B]
Трек 6 точное извлечение (доверие 4) [BE90D2BA]
Трек 7 точное извлечение (доверие 4) [5609E521]
Трек 8 точное извлечение (доверие 4) [14085F24]
Трек 9 точное извлечение (доверие 4) [93D0F0E4]
Трек 10 точное извлечение (доверие 4) [45906460]
Трек 11 точное извлечение (доверие 4) [19677DF1]
Трек 12 точное извлечение (доверие 4) [1DA6B33B]
Трек 13 точное извлечение (доверие 4) [B8BE8315]
Трек 14 точное извлечение (доверие 4) [E81D4CBF]
Трек 15 точное извлечение (доверие 4) [0CD44811]
Трек 16 точное извлечение (доверие 4) [EBCB5A8E]

Все треки извлечены точно

Конец отчёта

DR log CD1
foobar2000 1.2.1 / Dynamic Range Meter 1.1.1
log date: 2013-02-19 17:40:40

––––––––––––––––––––––––––––––––––––––––
Analyzed: Aretha Franklin / Forrest Gump (Special Collectors` Edition, E2K 85932, Disc 1) (1)
Bob Dylan / Forrest Gump (Special Collectors` Edition, E2K 85932, Disc 1) (2)
Buffalo Springfield / Forrest Gump (Special Collectors` Edition, E2K 85932, Disc 1) (3)
––––––––––––––––––––––––––––––––––––––––

DR Peak RMS Duration Track
––––––––––––––––––––––––––––––––––––––––
DR9 -0.10 dB -10.60 dB 2:27 09-Respect
DR10 -0.10 dB -11.09 dB 4:35 10-Rainy Day Women #12 & 35
DR8 -0.10 dB -9.50 dB 2:38 13-For What It’s Worth
––––––––––––––––––––––––––––––––––––––––

Number of tracks: 3
Official DR value: DR9

Samplerate: 44100 Hz
Channels: 2
Bits per sample: 16
Bitrate: 858 kbps
Codec: FLAC
================================================================================

––––––––––––––––––––––––––––––––––––––––
Analyzed: Clarence Frogman Henry / Forrest Gump (Special Collectors` Edition, E2K 85932, Disc 1) (1)
Creedence Clearwater Revival / Forrest Gump (Special Collectors` Edition, E2K 85932, Disc 1) (2)
––––––––––––––––––––––––––––––––––––––––

DR Peak RMS Duration Track
––––––––––––––––––––––––––––––––––––––––
DR9 -0.10 dB -10.70 dB 2:19 03-(I Don’t Know Why) But I Do
DR9 -0.10 dB -10.96 dB 2:18 07-Fortunate Son
––––––––––––––––––––––––––––––––––––––––

Number of tracks: 2
Official DR value: DR9

Samplerate: 44100 Hz
Channels: 2
Bits per sample: 16
Bitrate: 858 kbps
Codec: FLAC
================================================================================

––––––––––––––––––––––––––––––––––––––––
Statistics for: 02-Rebel Rouser
Number of samples: 6292776
Duration: 2:23
––––––––––––––––––––––––––––––––––––––––

Left Right

Peak Value: -0.10 dB –- -0.10 dB
Avg RMS: -8.85 dB –- -8.85 dB
DR channel: 7.46 dB –- 7.46 dB
––––––––––––––––––––––––––––––––––––––––

Official DR Value: DR7

Samplerate: 44100 Hz
Channels: 2
Bits per sample: 16
Bitrate: 858 kbps
Codec: FLAC
================================================================================
––––––––––––––––––––––––––––––––––––––––
Analyzed: Elvis Presley / Forrest Gump (Special Collectors` Edition, E2K 85932, Disc 1) (1)
Jackie DeShannon / Forrest Gump (Special Collectors` Edition, E2K 85932, Disc 1) (2)
––––––––––––––––––––––––––––––––––––––––

DR Peak RMS Duration Track
––––––––––––––––––––––––––––––––––––––––
DR7 -0.10 dB -8.14 dB 2:16 01-Hound Dog
DR8 -0.10 dB -11.53 dB 3:13 14-What The World Needs Now Is Love
––––––––––––––––––––––––––––––––––––––––

Number of tracks: 2
Official DR value: DR8

Samplerate: 44100 Hz
Channels: 2
Bits per sample: 16
Bitrate: 858 kbps
Codec: FLAC
================================================================================

––––––––––––––––––––––––––––––––––––––––
Analyzed: Joan Baez / Forrest Gump (Special Collectors` Edition, E2K 85932, Disc 1) (1)
Simon and Garfunkel / Forrest Gump (Special Collectors` Edition, E2K 85932, Disc 1) (2)
––––––––––––––––––––––––––––––––––––––––

DR Peak RMS Duration Track
––––––––––––––––––––––––––––––––––––––––
DR10 -0.10 dB -12.86 dB 2:37 06-Blowin’ In The Wind
DR9 -0.10 dB -11.14 dB 3:51 16-Mrs. Robinson
––––––––––––––––––––––––––––––––––––––––

Number of tracks: 2
Official DR value: DR9

Samplerate: 44100 Hz
Channels: 2
Bits per sample: 16
Bitrate: 858 kbps
Codec: FLAC
================================================================================

––––––––––––––––––––––––––––––––––––––––
Analyzed: The Beach Boys / Forrest Gump (Special Collectors` Edition, E2K 85932, Disc 1) (1)
The Doors / Forrest Gump (Special Collectors` Edition, E2K 85932, Disc 1) (2)
––––––––––––––––––––––––––––––––––––––––

DR Peak RMS Duration Track
––––––––––––––––––––––––––––––––––––––––
DR8 -0.70 dB -11.16 dB 2:56 11-Sloop John B
DR9 -0.10 dB -9.83 dB 2:27 15-Break On Through (To The Other Side)
––––––––––––––––––––––––––––––––––––––––

Number of tracks: 2
Official DR value: DR8

Samplerate: 44100 Hz
Channels: 2
Bits per sample: 16
Bitrate: 858 kbps
Codec: FLAC
================================================================================

––––––––––––––––––––––––––––––––––––––––
Analyzed: The Four Tops / Forrest Gump (Special Collectors` Edition, E2K 85932, Disc 1) (1)
The Mamas And The Papas / Forrest Gump (Special Collectors` Edition, E2K 85932, Disc 1) (2)
––––––––––––––––––––––––––––––––––––––––

DR Peak RMS Duration Track
––––––––––––––––––––––––––––––––––––––––
DR9 -0.10 dB -10.62 dB 2:43 08-I Can’t Help Myself (Sugar Pie Honey Bunch)
DR9 -0.10 dB -11.11 dB 2:39 12-California Dreamin’
––––––––––––––––––––––––––––––––––––––––

Number of tracks: 2
Official DR value: DR9

Samplerate: 44100 Hz
Channels: 2
Bits per sample: 16
Bitrate: 858 kbps
Codec: FLAC
================================================================================

––––––––––––––––––––––––––––––––––––––––
Analyzed: The Rooftop Singers / Forrest Gump (Special Collectors` Edition, E2K 85932, Disc 1) (1)
Wilson Pickett / Forrest Gump (Special Collectors` Edition, E2K 85932, Disc 1) (2)
––––––––––––––––––––––––––––––––––––––––

DR Peak RMS Duration Track
––––––––––––––––––––––––––––––––––––––––
DR9 -0.10 dB -10.67 dB 2:34 04-Walk Right In
DR9 -0.10 dB -9.99 dB 2:25 05-Land Of 1000 Dances
––––––––––––––––––––––––––––––––––––––––

Number of tracks: 2
Official DR value: DR9

Samplerate: 44100 Hz
Channels: 2
Bits per sample: 16
Bitrate: 858 kbps
Codec: FLAC
================================================================================

EAC log CD2
Exact Audio Copy V0.99 prebeta 5 from 4. May 2009

Отчёт EAC об извлечении, выполненном 19. апреля 2011, 20:39

Various Artists / Forrest Gump (Collectors Edition Disc 2) (E2K 85932)

Дисковод: ASUS DRW-24B1ST Adapter: 3 ID: 0

Режим чтения : Достоверность
Использование точного потока : Да
Отключение кэша аудио : Да
Использование указателей C2 : Нет

Коррекция смещения при чтении : 6
Способность читать области Lead-in и Lead-out : Нет
Заполнение пропущенных сэмплов тишиной : Да
Удаление блоков с тишиной в начале и конце : Нет
При вычислениях CRC использовались нулевые сэмплы : Да
Интерфейс : Встроенный Win32-интерфейс для Win NT/2000

Выходной формат : Внутренние WAV-операции
Формат сэмплов : 44.100 Гц; 16 бит; стерео

TOC извлечённого CD

Трек | Старт | Длительность | Начальный сектор | Конечный сектор
––––––––––––––––––––––––––––––––––-
1 | 0:00.00 | 2:04.37 | 0 | 9336
2 | 2:04.37 | 4:36.43 | 9337 | 30079
3 | 6:41.05 | 2:58.60 | 30080 | 43489
4 | 9:39.65 | 3:54.50 | 43490 | 61089
5 | 13:34.40 | 4:48.10 | 61090 | 82699
6 | 18:22.50 | 2:44.45 | 82700 | 95044
7 | 21:07.20 | 3:15.65 | 95045 | 109734
8 | 24:23.10 | 2:59.12 | 109735 | 123171
9 | 27:22.22 | 3:00.13 | 123172 | 136684
10 | 30:22.35 | 2:46.17 | 136685 | 149151
11 | 33:08.52 | 4:43.63 | 149152 | 170439
12 | 37:52.40 | 4:56.35 | 170440 | 192674
13 | 42:49.00 | 4:13.72 | 192675 | 211721
14 | 47:02.72 | 3:30.03 | 211722 | 227474
15 | 50:33.00 | 3:39.37 | 227475 | 243936
16 | 54:12.37 | 2:29.58 | 243937 | 255169
17 | 56:42.20 | 5:33.17 | 255170 | 280161
18 | 62:15.37 | 8:49.48 | 280162 | 319884

Характеристики диапазона извлечения и сообщения об ошибках

Выбранный диапазон

Имя файла D:Music!MyCDRips(wav)OSTForrest Gump (Special Collectors Edition) (E2K 85932)Disc 2Various Artists – Forrest Gump (Collectors Edition Disc 2) (E2K 85932).wav

Пиковый уровень 98.8 %
Качество диапазона 100.0 %
CRC теста 8F46F178
CRC копии 8F46F178
Копирование… OK

Ошибок не произошло

AccurateRip: сводка

Трек 1 точное извлечение (доверие 4) [9757077C]
Трек 2 точное извлечение (доверие 4) [A38FEE6C]
Трек 3 точное извлечение (доверие 4) [C9E3FB95]
Трек 4 точное извлечение (доверие 4) [8018CE18]
Трек 5 точное извлечение (доверие 4) [49E0F98B]
Трек 6 точное извлечение (доверие 4) [1309739B]
Трек 7 точное извлечение (доверие 4) [A31C1BAA]
Трек 8 точное извлечение (доверие 4) [FBB50FDD]
Трек 9 точное извлечение (доверие 4) [EFBBC7FA]
Трек 10 точное извлечение (доверие 4) [FB2FDA83]
Трек 11 точное извлечение (доверие 4) [A1F109D2]
Трек 12 точное извлечение (доверие 4) [64E05E7B]
Трек 13 точное извлечение (доверие 4) [3AA1829C]
Трек 14 точное извлечение (доверие 4) [33C3DB5A]
Трек 15 точное извлечение (доверие 4) [0A5C10A4]
Трек 16 точное извлечение (доверие 4) [B206DB12]
Трек 17 точное извлечение (доверие 4) [4927F8F4]
Трек 18 точное извлечение (доверие 4) [8DA607E3]

Все треки извлечены точно

Конец отчёта

DR log CD2
foobar2000 1.2.1 / Dynamic Range Meter 1.1.1
log date: 2013-02-19 17:42:11

––––––––––––––––––––––––––––––––––––––––
Analyzed: B. J. Thomas / Forrest Gump (Special Collectors` Edition, E2K 85932, Disc 2) (1)
Bob Seger & The Silver Bullet Band / Forrest Gump (Special Collectors` Edition, E2K 85932, Disc 2) (2)
––––––––––––––––––––––––––––––––––––––––

DR Peak RMS Duration Track
––––––––––––––––––––––––––––––––––––––––
DR9 -0.10 dB -10.76 dB 3:00 09-Raindrops Keep Falling On My Head
DR9 -0.10 dB -11.04 dB 5:33 17-Against The Wind
––––––––––––––––––––––––––––––––––––––––

Number of tracks: 2
Official DR value: DR9

Samplerate: 44100 Hz
Channels: 2
Bits per sample: 16
Bitrate: 900 kbps
Codec: FLAC
================================================================================

––––––––––––––––––––––––––––––––––––––––
Statistics for: 15-Go Your Own Way
Number of samples: 9679656
Duration: 3:39
––––––––––––––––––––––––––––––––––––––––

Left Right

Peak Value: -0.10 dB –- -0.10 dB
Avg RMS: -10.07 dB –- -9.06 dB
DR channel: 8.42 dB –- 7.25 dB
––––––––––––––––––––––––––––––––––––––––

Official DR Value: DR8

Samplerate: 44100 Hz
Channels: 2
Bits per sample: 16
Bitrate: 900 kbps
Codec: FLAC
================================================================================
––––––––––––––––––––––––––––––––––––––––
Statistics for: 14-I’ve Got To Use My Imagination
Number of samples: 9262764
Duration: 3:30
––––––––––––––––––––––––––––––––––––––––

Left Right

Peak Value: -0.10 dB –- -0.10 dB
Avg RMS: -10.13 dB –- -9.57 dB
DR channel: 8.64 dB –- 8.12 dB
––––––––––––––––––––––––––––––––––––––––

Official DR Value: DR8

Samplerate: 44100 Hz
Channels: 2
Bits per sample: 16
Bitrate: 900 kbps
Codec: FLAC
================================================================================
––––––––––––––––––––––––––––––––––––––––
Analyzed: Harry Nilsson / Forrest Gump (Special Collectors` Edition, E2K 85932, Disc 2) (1)
Jackson Browne / Forrest Gump (Special Collectors` Edition, E2K 85932, Disc 2) (2)
––––––––––––––––––––––––––––––––––––––––

DR Peak RMS Duration Track
––––––––––––––––––––––––––––––––––––––––
DR8 -0.10 dB -10.78 dB 2:45 06-Everybody’s Talkin’
DR8 -0.10 dB -9.14 dB 4:56 12-Running On Empty
––––––––––––––––––––––––––––––––––––––––

Number of tracks: 2
Official DR value: DR8

Samplerate: 44100 Hz
Channels: 2
Bits per sample: 16
Bitrate: 900 kbps
Codec: FLAC
================================================================================

––––––––––––––––––––––––––––––––––––––––
Analyzed: Jefferson Airplane / Forrest Gump (Special Collectors` Edition, E2K 85932, Disc 2) (1)
Lynyrd Skynyrd / Forrest Gump (Special Collectors` Edition, E2K 85932, Disc 2) (2)
––––––––––––––––––––––––––––––––––––––––

DR Peak RMS Duration Track
––––––––––––––––––––––––––––––––––––––––
DR8 -0.10 dB -9.61 dB 2:04 01-Volunteers
DR8 -0.10 dB -9.46 dB 4:44 11-Sweet Home Alabama
––––––––––––––––––––––––––––––––––––––––

Number of tracks: 2
Official DR value: DR8

Samplerate: 44100 Hz
Channels: 2
Bits per sample: 16
Bitrate: 900 kbps
Codec: FLAC
================================================================================

––––––––––––––––––––––––––––––––––––––––
Statistics for: 10-Mr. President (Have Pitty On The Working Man)
Number of samples: 7330596
Duration: 2:46
––––––––––––––––––––––––––––––––––––––––

Left Right

Peak Value: -0.10 dB –- -0.10 dB
Avg RMS: -13.11 dB –- -12.87 dB
DR channel: 11.18 dB –- 10.81 dB
––––––––––––––––––––––––––––––––––––––––

Official DR Value: DR11

Samplerate: 44100 Hz
Channels: 2
Bits per sample: 16
Bitrate: 900 kbps
Codec: FLAC
================================================================================
––––––––––––––––––––––––––––––––––––––––
Analyzed: Scott McKenzie / Forrest Gump (Special Collectors` Edition, E2K 85932, Disc 2) (1)
The Byrds / Forrest Gump (Special Collectors` Edition, E2K 85932, Disc 2) (2)
The Doobie Brothers / Forrest Gump (Special Collectors` Edition, E2K 85932, Disc 2) (3)
––––––––––––––––––––––––––––––––––––––––

DR Peak RMS Duration Track
––––––––––––––––––––––––––––––––––––––––
DR10 -0.10 dB -11.73 dB 2:59 03-San Francisco (Be Sure To Wear Some Flowers In Your Hand)
DR9 -0.10 dB -11.42 dB 3:55 04-Turn! Turn! Turn! (To Everything There Is A Season)
DR8 -0.10 dB -10.45 dB 4:14 13-It Keeps You Runnin’
––––––––––––––––––––––––––––––––––––––––

Number of tracks: 3
Official DR value: DR9

Samplerate: 44100 Hz
Channels: 2
Bits per sample: 16
Bitrate: 900 kbps
Codec: FLAC
================================================================================

––––––––––––––––––––––––––––––––––––––––
Analyzed: The Fifth Dimension / Forrest Gump (Special Collectors` Edition, E2K 85932, Disc 2) (1)
The Supremes / Forrest Gump (Special Collectors` Edition, E2K 85932, Disc 2) (2)
––––––––––––––––––––––––––––––––––––––––

DR Peak RMS Duration Track
––––––––––––––––––––––––––––––––––––––––
DR8 -0.10 dB -9.24 dB 4:48 05-Medley_ Aquarius – Let the Sunshine In
DR9 -0.10 dB -10.03 dB 2:59 08-Stoned Love
––––––––––––––––––––––––––––––––––––––––

Number of tracks: 2
Official DR value: DR8

Samplerate: 44100 Hz
Channels: 2
Bits per sample: 16
Bitrate: 900 kbps
Codec: FLAC
================================================================================

––––––––––––––––––––––––––––––––––––––––
Analyzed: The Youngbloods / Forrest Gump (Special Collectors` Edition, E2K 85932, Disc 2) (1)
Three Dog Night / Forrest Gump (Special Collectors` Edition, E2K 85932, Disc 2) (2)
Willie Nelson / Forrest Gump (Special Collectors` Edition, E2K 85932, Disc 2) (3)
––––––––––––––––––––––––––––––––––––––––

DR Peak RMS Duration Track
––––––––––––––––––––––––––––––––––––––––
DR8 -0.10 dB -10.61 dB 4:37 02-Let’s Get Together
DR7 -0.10 dB -8.50 dB 3:16 07-Joy To The World
DR8 -0.10 dB -10.71 dB 2:30 16-On The Road Again
––––––––––––––––––––––––––––––––––––––––

Number of tracks: 3
Official DR value: DR8

Samplerate: 44100 Hz
Channels: 2
Bits per sample: 16
Bitrate: 900 kbps
Codec: FLAC
================================================================================

Forrest Gump - The Soundtrack: 34 American Classics On 2 CDs (1994) Special Collectors' Edition 2001

Forrest Gump - The Soundtrack: 34 American Classics On 2 CDs (1994) Special Collectors' Edition 2001

All thanks to original releaser – Misantrop

More interesting music in My Blog

Forrest Gump – The Soundtrack: 34 American Classics On 2 CDs (1994) Special Collectors' Edition 2001 Download, Warez, DDL, Free, Full Album, Torrent, Legal.

Download