Focus – Hocus Pocus Box (2017) {13CD Box Set}

Download
Focus - Hocus Pocus Box (2017) {13CD Box Set}

Focus – Hocus Pocus Box (2017) {13CD Box Set}
EAC Rip | FLAC (Img) + Cue + Log ~ 4,62 Gb | MP3 CBR320 ~ 1,82 Gb
Scans: Covers Included / Box & Booklet ~ 148 Mb | RAR 5% Recovery
Progressive Rock, Art Rock | Red Bullet #RB 66.307

Limited 13 CD box set from the iconic Dutch band. Includes the albums In & Out Of Focus, Focus II Moving Waves, Focus III, Live At The Rainbow, Hamburger Concerto, Mother Focus, Ship Of Memories, Focus Con Proby, Jann Akkerman & Thijs Van Leer – Focus, Focus 8, Focus 9 New Skin, Focus X, and The Best Of Focus. Opposites attract, or so they say. And Jan Akkerman and Thijs van Leer certainly are opposites. Both incredibly gifted, the two musicians inspire each other when they meet in Focus. Here you find Akkerman and Van Leer’s exciting legacy of superb continental European progressive rock. And jazz. And classical music. Plus the non-Akkerman Focus releases, with a rejuvenated band helmed by Thijs van Leer, innovative as ever, creating new sounds like no other band can. A box of groundbreaking music to say the least.

Focus - Hocus Pocus Box (2017) {13CD Box Set}

Best remembered for their bizarre chart smash "Hocus Pocus," Dutch progressive rock band Focus was formed in Amsterdam in 1969 by vocalist/keyboardist/flutist Thijs van Leer, bassist Martin Dresden, and drummer Hans Cleuver. With the subsequent addition of guitarist Jan Akkerman, the group issued its debut LP, In and Out of Focus, in 1970, earning a European cult following thanks to the single "House of the King." Dresden and Cleuver were replaced by bassist Cyril Havermanns and drummer Pierre Van der Linden for the English-language follow-up, Moving Waves; the record generated the hit "Hocus Pocus," a hallucinatory epic distinguished by Akkerman’s guitar pyrotechnics and van Leer’s demented yodeling. Easily one of the flat-out strangest songs ever to crack the American pop charts, the single peaked at number nine in the spring of 1973, by which time Focus had already exchanged Havermanns for bassist Bert Ruiter and issued their third album, Focus III, which yielded the minor hit "Sylvia." In the wake of 1974’s Hamburger Concert, the band streamlined the classical aspirations of earlier efforts to pursue a more pop-oriented approach on records like Ship of Memories and Mother Focus; though roster changes regularly plagued Focus throughout the period, none was more pivotal than the 1976 exit of Akkerman, who was replaced by guitarist Philip Catherine for 1978’s Focus con Proby, cut with British pop singer P.J. Proby. Focus then disbanded, with the original lineup reuniting in 1990 for a Dutch television special.

~ All Music
Focus - Hocus Pocus Box (2017) {13CD Box Set}

Official Website | Wiki | Discogs | All Music

***************

Focus - Hocus Pocus Box (2017) {13CD Box Set}

Focus - Hocus Pocus Box (2017) {13CD Box Set}

Track List CD1 – In And Out Of Focus (1970):

01. Focus… (Vocal) [2:44]
02. Black Beauty [3:08]
03. Sugar Island [3:05]
04. Anonymus [6:33]
05. House Of The King [2:51]
06. Happy Nightmare (Mescaline) [3:59]
07. Why Dream [3:58]
08. Focus… (Instrumental) [9:46]

EAC Log
Exact Audio Copy V1.1 from 23. June 2015

Отчёт EAC об извлечении, выполненном 25. июля 2017, 12:27

Focus / In And Out Of Focus

Дисковод: ASUS DRW-24B3ST Adapter: 0 ID: 0

Режим чтения : Достоверность
Использование точного потока : Да
Отключение кэша аудио : Да
Использование указателей C2 : Нет

Коррекция смещения при чтении : 6
Способность читать области Lead-in и Lead-out : Нет
Заполнение пропущенных сэмплов тишиной : Да
Удаление блоков с тишиной в начале и конце : Нет
При вычислениях CRC использовались нулевые сэмплы : Да
Интерфейс : Установленный внешний ASPI-интерфейс

Выходной формат : Пользовательский кодировщик
Выбранный битрейт : 1024 kBit/s
Качество : Высокий
Добавление ID3-тега : Нет
Утилита сжатия : C:Program Files (x86)Exact Audio CopyFlacflac.exe
Дополнительные параметры : -V -8 -T "Date=%year%" -T "Genre=%genre%" %source%

TOC извлечённого CD

Трек | Старт | Длительность | Начальный сектор | Конечный сектор
––––––––––––––––––––––––––––––––––-
1 | 0:00.00 | 2:44.06 | 0 | 12305
2 | 2:44.06 | 3:08.07 | 12306 | 26412
3 | 5:52.13 | 3:05.18 | 26413 | 40305
4 | 8:57.31 | 6:33.01 | 40306 | 69781
5 | 15:30.32 | 2:51.07 | 69782 | 82613
6 | 18:21.39 | 3:59.12 | 82614 | 100550
7 | 22:20.51 | 3:57.67 | 100551 | 118392
8 | 26:18.43 | 9:45.43 | 118393 | 162310

Характеристики диапазона извлечения и сообщения об ошибках

Выбранный диапазон

Имя файла E:TorrentsFocus – 2017 – Hocus Pocus Box1970 – In And Out Of FocusFocus – In And Out Of Focus.wav

Пиковый уровень 100.0 %
Скорость извлечения 7.5 X
Качество диапазона 100.0 %
CRC теста 96F26D80
CRC копии 96F26D80
Копирование… OK

Ошибок не произошло

AccurateRip: сводка

Трек 1 отсутствует в базе данных
Трек 2 отсутствует в базе данных
Трек 3 отсутствует в базе данных
Трек 4 отсутствует в базе данных
Трек 5 отсутствует в базе данных
Трек 6 отсутствует в базе данных
Трек 7 отсутствует в базе данных
Трек 8 отсутствует в базе данных

Ни одного трека нет в базе AccurateRip

Конец отчёта

==== Контрольная сумма отчёта 462423F455E4E51973CA8DD92A4F9F0E974BB029CAD9C6BCA3100C77611B504C ====

DR Log
foobar2000 1.2.6 / Dynamic Range Meter 1.1.1
log date: 2017-07-26 04:44:21

––––––––––––––––––––––––––––––––––––––––
Analyzed: Focus / In And Out Of Focus
––––––––––––––––––––––––––––––––––––––––

DR Peak RMS Duration Track
––––––––––––––––––––––––––––––––––––––––
DR8 -2.57 dB -11.83 dB 2:44 01-Focus… (Vocal)
DR7 0.00 dB -9.23 dB 3:08 02-Black Beauty
DR8 0.00 dB -9.66 dB 3:05 03-Sugar Island
DR7 0.00 dB -8.75 dB 6:33 04-Anonymus
DR9 -0.08 dB -12.02 dB 2:51 05-House Of The King
DR8 -0.23 dB -10.40 dB 3:59 06-Happy Nightmare (Mescaline)
DR8 -0.13 dB -10.47 dB 3:58 07-Why Dream
DR7 0.00 dB -9.38 dB 9:46 08-Focus… (Instrumental)
––––––––––––––––––––––––––––––––––––––––

Number of tracks: 8
Official DR value: DR8

Samplerate: 44100 Hz
Channels: 2
Bits per sample: 16
Bitrate: 936 kbps
Codec: FLAC
================================================================================

Focus - Hocus Pocus Box (2017) {13CD Box Set}

Track List CD2 – Moving Waves (1971):

01. Hocus Pocus [6:43]
02. Le Clochard [2:01]
03. Janis [3:08]
04. Moving Waves [2:43]
05. Focus II [4:04]
06. Eruption [23:02]

EAC Log
Exact Audio Copy V1.1 from 23. June 2015

Отчёт EAC об извлечении, выполненном 25. июля 2017, 12:42

Focus / Moving Waves (Focus 2)

Дисковод: ASUS DRW-24B3ST Adapter: 0 ID: 0

Режим чтения : Достоверность
Использование точного потока : Да
Отключение кэша аудио : Да
Использование указателей C2 : Нет

Коррекция смещения при чтении : 6
Способность читать области Lead-in и Lead-out : Нет
Заполнение пропущенных сэмплов тишиной : Да
Удаление блоков с тишиной в начале и конце : Нет
При вычислениях CRC использовались нулевые сэмплы : Да
Интерфейс : Установленный внешний ASPI-интерфейс

Выходной формат : Пользовательский кодировщик
Выбранный битрейт : 1024 kBit/s
Качество : Высокий
Добавление ID3-тега : Нет
Утилита сжатия : C:Program Files (x86)Exact Audio CopyFlacflac.exe
Дополнительные параметры : -V -8 -T "Date=%year%" -T "Genre=%genre%" %source%

TOC извлечённого CD

Трек | Старт | Длительность | Начальный сектор | Конечный сектор
––––––––––––––––––––––––––––––––––-
1 | 0:00.00 | 6:42.42 | 0 | 30191
2 | 6:42.42 | 2:01.00 | 30192 | 39266
3 | 8:43.42 | 3:08.08 | 39267 | 53374
4 | 11:51.50 | 2:42.45 | 53375 | 65569
5 | 14:34.20 | 4:03.50 | 65570 | 83844
6 | 18:37.70 | 23:02.37 | 83845 | 187531

Характеристики диапазона извлечения и сообщения об ошибках

Выбранный диапазон

Имя файла E:TorrentsFocus – 2017 – Hocus Pocus Box1971 – Moving WavesFocus – Moving Waves (Focus 2).wav

Пиковый уровень 100.0 %
Скорость извлечения 7.9 X
Качество диапазона 100.0 %
CRC теста F524DDBB
CRC копии F524DDBB
Копирование… OK

Ошибок не произошло

AccurateRip: сводка

Трек 1 точность не определена (достоверность 57) [C6414E18], AccurateRip вернул [625510F3] (AR v2)
Трек 2 точность не определена (достоверность 55) [6256A053], AccurateRip вернул [CD1EEA24] (AR v2)
Трек 3 точность не определена (достоверность 56) [5EBD31A5], AccurateRip вернул [91B7670E] (AR v2)
Трек 4 точность не определена (достоверность 55) [53D4E2B7], AccurateRip вернул [35BB5B1E] (AR v2)
Трек 5 точность не определена (достоверность 56) [FC39EE94], AccurateRip вернул [93F19B56] (AR v2)
Трек 6 точность не определена (достоверность 56) [D08F3B82], AccurateRip вернул [5D95ABFF] (AR v2)

Ни один трек не прошёл проверки на точность
В вашей базе может быть иной вариант штамповки диска

Конец отчёта

==== Контрольная сумма отчёта 67D257CDF9ED27798F24AD977C17E00B4D88D28B677CA9F5EA41851673B89712 ====

DR Log
foobar2000 1.2.6 / Dynamic Range Meter 1.1.1
log date: 2017-07-26 04:45:09

––––––––––––––––––––––––––––––––––––––––
Analyzed: Focus / Moving Waves (Focus 2)
––––––––––––––––––––––––––––––––––––––––

DR Peak RMS Duration Track
––––––––––––––––––––––––––––––––––––––––
DR8 0.00 dB -10.80 dB 6:43 01-Hocus Pocus
DR11 -1.46 dB -15.82 dB 2:01 02-Le Clochard
DR9 -0.18 dB -10.96 dB 3:08 03-Janis
DR10 -0.59 dB -15.34 dB 2:43 04-Moving Waves
DR8 -0.02 dB -10.82 dB 4:04 05-Focus II
DR8 0.00 dB -10.69 dB 23:02 06-Eruption
––––––––––––––––––––––––––––––––––––––––

Number of tracks: 6
Official DR value: DR9

Samplerate: 44100 Hz
Channels: 2
Bits per sample: 16
Bitrate: 819 kbps
Codec: FLAC
================================================================================

Focus - Hocus Pocus Box (2017) {13CD Box Set}

Track List CD3 – Focus 3 (1972):

01. Round Goes The Gossip [5:13]
02. Love Remembered [2:49]
03. Sylvia [3:32]
04. Carnival Fugue [6:08]
05. Focus III [6:05]
06. Answers? Questions! Questions? Answers! [13:50]
07. Elspeth Of Nottingham [3:09]
08. Anonymus two [26:23]

EAC Log
Exact Audio Copy V1.1 from 23. June 2015

Отчёт EAC об извлечении, выполненном 25. июля 2017, 13:06

Focus / Focus 3

Дисковод: ASUS DRW-24B3ST Adapter: 0 ID: 0

Режим чтения : Достоверность
Использование точного потока : Да
Отключение кэша аудио : Да
Использование указателей C2 : Нет

Коррекция смещения при чтении : 6
Способность читать области Lead-in и Lead-out : Нет
Заполнение пропущенных сэмплов тишиной : Да
Удаление блоков с тишиной в начале и конце : Нет
При вычислениях CRC использовались нулевые сэмплы : Да
Интерфейс : Установленный внешний ASPI-интерфейс

Выходной формат : Пользовательский кодировщик
Выбранный битрейт : 1024 kBit/s
Качество : Высокий
Добавление ID3-тега : Нет
Утилита сжатия : C:Program Files (x86)Exact Audio CopyFlacflac.exe
Дополнительные параметры : -V -8 -T "Date=%year%" -T "Genre=%genre%" %source%

TOC извлечённого CD

Трек | Старт | Длительность | Начальный сектор | Конечный сектор
––––––––––––––––––––––––––––––––––-
1 | 0:00.00 | 5:12.43 | 0 | 23442
2 | 5:12.43 | 2:49.27 | 23443 | 36144
3 | 8:01.70 | 3:31.61 | 36145 | 52030
4 | 11:33.56 | 6:08.33 | 52031 | 79663
5 | 17:42.14 | 6:04.54 | 79664 | 107017
6 | 23:46.68 | 13:50.11 | 107018 | 169278
7 | 37:37.04 | 3:09.15 | 169279 | 183468
8 | 40:46.19 | 26:22.46 | 183469 | 302164

Характеристики диапазона извлечения и сообщения об ошибках

Выбранный диапазон

Имя файла E:TorrentsFocus – 2017 – Hocus Pocus Box1972 – Focus 3Focus – Focus 3.wav

Пиковый уровень 100.0 %
Скорость извлечения 8.6 X
Качество диапазона 100.0 %
CRC теста FA429697
CRC копии FA429697
Копирование… OK

Ошибок не произошло

AccurateRip: сводка

Трек 1 отсутствует в базе данных
Трек 2 отсутствует в базе данных
Трек 3 отсутствует в базе данных
Трек 4 отсутствует в базе данных
Трек 5 отсутствует в базе данных
Трек 6 отсутствует в базе данных
Трек 7 отсутствует в базе данных
Трек 8 отсутствует в базе данных

Ни одного трека нет в базе AccurateRip

Конец отчёта

==== Контрольная сумма отчёта ED293159E9E5574267A0B31E5189BD5BF6656DCBF1C41AE876966BB386563D53 ====

DR Log
foobar2000 1.2.6 / Dynamic Range Meter 1.1.1
log date: 2017-07-26 04:47:39

––––––––––––––––––––––––––––––––––––––––
Analyzed: Focus / Focus 3
––––––––––––––––––––––––––––––––––––––––

DR Peak RMS Duration Track
––––––––––––––––––––––––––––––––––––––––
DR9 0.00 dB -11.13 dB 5:13 01-Round Goes The Gossip
DR7 -0.03 dB -9.31 dB 2:49 02-Love Remembered
DR7 -0.03 dB -8.27 dB 3:32 03-Sylvia
DR9 -0.03 dB -12.05 dB 6:08 04-Carnival Fugue
DR9 -0.03 dB -13.29 dB 6:05 05-Focus III
DR7 0.00 dB -9.91 dB 13:50 06-Answers? Questions! Questions? Answers!
DR12 -0.01 dB -15.16 dB 3:09 07-Elspeth Of Nottingham
DR9 -0.52 dB -11.22 dB 26:23 08-Anonymus two
––––––––––––––––––––––––––––––––––––––––

Number of tracks: 8
Official DR value: DR9

Samplerate: 44100 Hz
Channels: 2
Bits per sample: 16
Bitrate: 874 kbps
Codec: FLAC
================================================================================

Focus - Hocus Pocus Box (2017) {13CD Box Set}

Track List CD4 – At The Rainbow (1973):

01. Focus III [3:53]
02. Answers? Questions! Questions? Answers! [11:30]
03. Focus II [4:37]
04. Eruption [8:28]
05. Hocus Pocus [8:30]
06. Sylvia [2:48]
07. Hocus Pocus – Reprise [2:50]

EAC Log
Exact Audio Copy V1.1 from 23. June 2015

Отчёт EAC об извлечении, выполненном 25. июля 2017, 13:23

Focus / At The Rainbow

Дисковод: ASUS DRW-24B3ST Adapter: 0 ID: 0

Режим чтения : Достоверность
Использование точного потока : Да
Отключение кэша аудио : Да
Использование указателей C2 : Нет

Коррекция смещения при чтении : 6
Способность читать области Lead-in и Lead-out : Нет
Заполнение пропущенных сэмплов тишиной : Да
Удаление блоков с тишиной в начале и конце : Нет
При вычислениях CRC использовались нулевые сэмплы : Да
Интерфейс : Установленный внешний ASPI-интерфейс

Выходной формат : Пользовательский кодировщик
Выбранный битрейт : 1024 kBit/s
Качество : Высокий
Добавление ID3-тега : Нет
Утилита сжатия : C:Program Files (x86)Exact Audio CopyFlacflac.exe
Дополнительные параметры : -V -8 -T "Date=%year%" -T "Genre=%genre%" %source%

TOC извлечённого CD

Трек | Старт | Длительность | Начальный сектор | Конечный сектор
––––––––––––––––––––––––––––––––––-
1 | 0:00.00 | 3:53.02 | 0 | 17476
2 | 3:53.02 | 11:29.39 | 17477 | 69190
3 | 15:22.41 | 4:36.55 | 69191 | 89945
4 | 19:59.21 | 8:28.26 | 89946 | 128071
5 | 28:27.47 | 8:30.03 | 128072 | 166324
6 | 36:57.50 | 2:47.56 | 166325 | 178905
7 | 39:45.31 | 2:49.43 | 178906 | 191623

Характеристики диапазона извлечения и сообщения об ошибках

Выбранный диапазон

Имя файла E:TorrentsFocus – 2017 – Hocus Pocus Box1973 – At The RainbowFocus – At The Rainbow.wav

Пиковый уровень 96.5 %
Скорость извлечения 7.9 X
Качество диапазона 100.0 %
CRC теста E376B88C
CRC копии E376B88C
Копирование… OK

Ошибок не произошло

AccurateRip: сводка

Трек 1 отсутствует в базе данных
Трек 2 отсутствует в базе данных
Трек 3 отсутствует в базе данных
Трек 4 отсутствует в базе данных
Трек 5 отсутствует в базе данных
Трек 6 отсутствует в базе данных
Трек 7 отсутствует в базе данных

Ни одного трека нет в базе AccurateRip

Конец отчёта

==== Контрольная сумма отчёта 6C0476BCCAA9385ABE488C795C035EADE24DD8BD687B9C6B119824247DC83F9B ====

DR Log
foobar2000 1.2.6 / Dynamic Range Meter 1.1.1
log date: 2017-07-26 04:50:02

––––––––––––––––––––––––––––––––––––––––
Analyzed: Focus / At The Rainbow
––––––––––––––––––––––––––––––––––––––––

DR Peak RMS Duration Track
––––––––––––––––––––––––––––––––––––––––
DR10 -0.32 dB -14.39 dB 3:53 01-Focus III
DR10 -0.31 dB -12.93 dB 11:30 02-Answers? Questions! Questions? Answers!
DR11 -0.31 dB -15.14 dB 4:37 03-Focus II
DR11 -0.31 dB -15.24 dB 8:28 04-Eruption
DR9 -0.31 dB -12.40 dB 8:30 05-Hocus Pocus
DR9 -0.31 dB -11.37 dB 2:48 06-Sylvia
DR9 -0.32 dB -13.30 dB 2:50 07-Hocus Pocus – Reprise
––––––––––––––––––––––––––––––––––––––––

Number of tracks: 7
Official DR value: DR10

Samplerate: 44100 Hz
Channels: 2
Bits per sample: 16
Bitrate: 818 kbps
Codec: FLAC
================================================================================

Focus - Hocus Pocus Box (2017) {13CD Box Set}

Track List CD5 – Hamburger Concerto (1974):

01. Delitae Musicae [1:14]
02. Harem Scarem [5:52]
03. La Cathedrale de Strasbourg [5:00]
04. Birth [7:46]
05. Hamburger Concerto [20:20]
06. Early Birth [2:55]

EAC Log
Exact Audio Copy V1.1 from 23. June 2015

Отчёт EAC об извлечении, выполненном 25. июля 2017, 13:37

Focus / Hamburger Concerto

Дисковод: ASUS DRW-24B3ST Adapter: 0 ID: 0

Режим чтения : Достоверность
Использование точного потока : Да
Отключение кэша аудио : Да
Использование указателей C2 : Нет

Коррекция смещения при чтении : 6
Способность читать области Lead-in и Lead-out : Нет
Заполнение пропущенных сэмплов тишиной : Да
Удаление блоков с тишиной в начале и конце : Нет
При вычислениях CRC использовались нулевые сэмплы : Да
Интерфейс : Установленный внешний ASPI-интерфейс

Выходной формат : Пользовательский кодировщик
Выбранный битрейт : 1024 kBit/s
Качество : Высокий
Добавление ID3-тега : Нет
Утилита сжатия : C:Program Files (x86)Exact Audio CopyFlacflac.exe
Дополнительные параметры : -V -8 -T "Date=%year%" -T "Genre=%genre%" %source%

TOC извлечённого CD

Трек | Старт | Длительность | Начальный сектор | Конечный сектор
––––––––––––––––––––––––––––––––––-
1 | 0:00.00 | 1:13.69 | 0 | 5543
2 | 1:13.69 | 5:52.36 | 5544 | 31979
3 | 7:06.30 | 5:00.07 | 31980 | 54486
4 | 12:06.37 | 7:46.37 | 54487 | 89473
5 | 19:52.74 | 20:19.63 | 89474 | 180961
6 | 40:12.62 | 2:54.53 | 180962 | 194064

Характеристики диапазона извлечения и сообщения об ошибках

Выбранный диапазон

Имя файла E:TorrentsFocus – 2017 – Hocus Pocus Box1974 – Hamburger ConcertoFocus – Hamburger Concerto.wav

Пиковый уровень 94.8 %
Скорость извлечения 7.9 X
Качество диапазона 100.0 %
CRC теста 7B87874A
CRC копии 7B87874A
Копирование… OK

Ошибок не произошло

AccurateRip: сводка

Трек 1 отсутствует в базе данных
Трек 2 отсутствует в базе данных
Трек 3 отсутствует в базе данных
Трек 4 отсутствует в базе данных
Трек 5 отсутствует в базе данных
Трек 6 отсутствует в базе данных

Ни одного трека нет в базе AccurateRip

Конец отчёта

==== Контрольная сумма отчёта A6EA411444FD59F8B2007668683C57552FD8D4A15A9A6637B3383E9A811D20CC ====

DR Log
foobar2000 1.2.6 / Dynamic Range Meter 1.1.1
log date: 2017-07-26 04:52:37

––––––––––––––––––––––––––––––––––––––––
Analyzed: Focus / Hamburger Concerto
––––––––––––––––––––––––––––––––––––––––

DR Peak RMS Duration Track
––––––––––––––––––––––––––––––––––––––––
DR13 -1.31 dB -18.39 dB 1:14 01-Delitae Musicae
DR7 -0.64 dB -8.79 dB 5:52 02-Harem Scarem
DR7 -0.78 dB -11.32 dB 5:00 03-La Cathedrale de Strasbourg
DR6 -0.46 dB -8.66 dB 7:46 04-Birth
DR6 -0.52 dB -9.35 dB 20:20 05-Hamburger Concerto
DR6 -0.71 dB -8.77 dB 2:55 06-Early Birth
––––––––––––––––––––––––––––––––––––––––

Number of tracks: 6
Official DR value: DR7

Samplerate: 44100 Hz
Channels: 2
Bits per sample: 16
Bitrate: 885 kbps
Codec: FLAC
================================================================================

Focus - Hocus Pocus Box (2017) {13CD Box Set}

Track List CD6 – Mother Focus (1975):

01. Mother Focus [3:05]
02. I Need A Bothroom [3:06]
03. Bennie Helder [3:32]
04. Soft Vanilla [3:03]
05. Hard Vanilla [2:36]
06. Tropic Bird [2:44]
07. Focus IV [3:59]
08. Someone’s Crying… What! [3:20]
09. All Together… Oh That! [3:42]
10. No Hang Ups [2:56]
11. My Sweetheart [3:37]
12. Father Bach [1:34]

EAC Log
Exact Audio Copy V1.1 from 23. June 2015

Отчёт EAC об извлечении, выполненном 25. июля 2017, 14:04

Focus / Mother Focus

Дисковод: ASUS DRW-24B3ST Adapter: 0 ID: 0

Режим чтения : Достоверность
Использование точного потока : Да
Отключение кэша аудио : Да
Использование указателей C2 : Нет

Коррекция смещения при чтении : 6
Способность читать области Lead-in и Lead-out : Нет
Заполнение пропущенных сэмплов тишиной : Да
Удаление блоков с тишиной в начале и конце : Нет
При вычислениях CRC использовались нулевые сэмплы : Да
Интерфейс : Установленный внешний ASPI-интерфейс

Выходной формат : Пользовательский кодировщик
Выбранный битрейт : 1024 kBit/s
Качество : Высокий
Добавление ID3-тега : Нет
Утилита сжатия : C:Program Files (x86)Exact Audio CopyFlacflac.exe
Дополнительные параметры : -V -8 -T "Date=%year%" -T "Genre=%genre%" %source%

TOC извлечённого CD

Трек | Старт | Длительность | Начальный сектор | Конечный сектор
––––––––––––––––––––––––––––––––––-
1 | 0:00.00 | 3:04.74 | 0 | 13873
2 | 3:04.74 | 3:06.34 | 13874 | 27857
3 | 6:11.33 | 3:32.19 | 27858 | 43776
4 | 9:43.52 | 3:03.14 | 43777 | 57515
5 | 12:46.66 | 2:36.10 | 57516 | 69225
6 | 15:23.01 | 2:43.49 | 69226 | 81499
7 | 18:06.50 | 3:58.45 | 81500 | 99394
8 | 22:05.20 | 3:19.68 | 99395 | 114387
9 | 25:25.13 | 3:41.49 | 114388 | 131011
10 | 29:06.62 | 2:56.36 | 131012 | 144247
11 | 32:03.23 | 3:37.02 | 144248 | 160524
12 | 35:40.25 | 1:34.25 | 160525 | 167599

Характеристики диапазона извлечения и сообщения об ошибках

Выбранный диапазон

Имя файла E:TorrentsFocus – 2017 – Hocus Pocus Box1975 – Mother FocusFocus – Mother Focus.wav

Пиковый уровень 89.3 %
Скорость извлечения 7.5 X
Качество диапазона 99.9 %
CRC теста 48A5BB41
CRC копии 48A5BB41
Копирование… OK

Ошибок не произошло

AccurateRip: сводка

Трек 1 : извлечено точно (доверие 1) [6018F0B1] (AR v2)
Трек 2 : извлечено точно (доверие 1) [E4176481] (AR v2)
Трек 3 : извлечено точно (доверие 1) [747AEC76] (AR v2)
Трек 4 : извлечено точно (доверие 1) [7D8AA6E6] (AR v2)
Трек 5 : извлечено точно (доверие 1) [36884907] (AR v2)
Трек 6 : извлечено точно (доверие 1) [6D76EA5B] (AR v2)
Трек 7 : извлечено точно (доверие 1) [B546DDB1] (AR v2)
Трек 8 : извлечено точно (доверие 1) [5F014A64] (AR v2)
Трек 9 : извлечено точно (доверие 1) [A6FD10BB] (AR v2)
Трек 10 : извлечено точно (доверие 1) [47D35E54] (AR v2)
Трек 11 : извлечено точно (доверие 1) [DE65729B] (AR v2)
Трек 12 : извлечено точно (доверие 1) [9FE282AF] (AR v2)

Все треки извлечены точно

Конец отчёта

==== Контрольная сумма отчёта 8AEF27396F05EF8C922FA5A1E11A18D0ECB1906EA2F17F015C0BA2FAF7A04B3F ====

DR Log
foobar2000 1.2.6 / Dynamic Range Meter 1.1.1
log date: 2017-07-26 04:55:23

––––––––––––––––––––––––––––––––––––––––
Analyzed: Focus / Mother Focus
––––––––––––––––––––––––––––––––––––––––

DR Peak RMS Duration Track
––––––––––––––––––––––––––––––––––––––––
DR8 -1.33 dB -10.74 dB 3:05 01-Mother Focus
DR9 -1.43 dB -11.45 dB 3:06 02-I Need A Bothroom
DR9 -1.33 dB -11.73 dB 3:32 03-Bennie Helder
DR9 -1.35 dB -11.97 dB 3:03 04-Soft Vanilla
DR8 -1.33 dB -10.80 dB 2:36 05-Hard Vanilla
DR8 -1.32 dB -11.59 dB 2:44 06-Tropic Bird
DR9 -1.33 dB -13.56 dB 3:59 07-Focus IV
DR9 -1.98 dB -15.00 dB 3:20 08-Someone’s Crying… What!
DR9 -1.33 dB -12.94 dB 3:42 09-All Together… Oh That!
DR8 -0.98 dB -11.53 dB 2:56 10-No Hang Ups
DR10 -1.46 dB -12.82 dB 3:37 11-My Sweetheart
DR10 -2.63 dB -16.49 dB 1:34 12-Father Bach
––––––––––––––––––––––––––––––––––––––––

Number of tracks: 12
Official DR value: DR9

Samplerate: 44100 Hz
Channels: 2
Bits per sample: 16
Bitrate: 870 kbps
Codec: FLAC
================================================================================

Focus - Hocus Pocus Box (2017) {13CD Box Set}

Track List CD7 – Ship Of Memories (1976):

01. P’S March [4:49]
02. Can’t believe My Eyes [5:22]
03. Focus V [3:02]
04. Out Of Vesuvius [5:50]
05. Glider [4:39]
06. Red Sky At Night [5:51]
07. Spoke The Lord Creator [2:33]
08. Crackers [2:44]
09. Ship Of Memories [1:47]
10. Hocus Pocus (U.S. Single Version) [3:26]

EAC Log
Exact Audio Copy V1.1 from 23. June 2015

Отчёт EAC об извлечении, выполненном 25. июля 2017, 14:23

Focus / Ship Of Memories

Дисковод: ASUS DRW-24B3ST Adapter: 0 ID: 0

Режим чтения : Достоверность
Использование точного потока : Да
Отключение кэша аудио : Да
Использование указателей C2 : Нет

Коррекция смещения при чтении : 6
Способность читать области Lead-in и Lead-out : Нет
Заполнение пропущенных сэмплов тишиной : Да
Удаление блоков с тишиной в начале и конце : Нет
При вычислениях CRC использовались нулевые сэмплы : Да
Интерфейс : Установленный внешний ASPI-интерфейс

Выходной формат : Пользовательский кодировщик
Выбранный битрейт : 1024 kBit/s
Качество : Высокий
Добавление ID3-тега : Нет
Утилита сжатия : C:Program Files (x86)Exact Audio CopyFlacflac.exe
Дополнительные параметры : -V -8 -T "Date=%year%" -T "Genre=%genre%" %source%

TOC извлечённого CD

Трек | Старт | Длительность | Начальный сектор | Конечный сектор
––––––––––––––––––––––––––––––––––-
1 | 0:00.00 | 4:49.10 | 0 | 21684
2 | 4:49.10 | 5:22.22 | 21685 | 45856
3 | 10:11.32 | 3:02.28 | 45857 | 59534
4 | 13:13.60 | 5:50.05 | 59535 | 85789
5 | 19:03.65 | 4:38.67 | 85790 | 106706
6 | 23:42.57 | 5:50.70 | 106707 | 133026
7 | 29:33.52 | 2:33.17 | 133027 | 144518
8 | 32:06.69 | 2:43.65 | 144519 | 156808
9 | 34:50.59 | 1:47.05 | 156809 | 164838
10 | 36:37.64 | 3:25.68 | 164839 | 180281

Характеристики диапазона извлечения и сообщения об ошибках

Выбранный диапазон

Имя файла E:TorrentsFocus – 2017 – Hocus Pocus Box1976 – Ship Of MemoriesFocus – Ship Of Memories.wav

Пиковый уровень 98.5 %
Скорость извлечения 7.7 X
Качество диапазона 100.0 %
CRC теста E7AA9C0B
CRC копии E7AA9C0B
Копирование… OK

Ошибок не произошло

AccurateRip: сводка

Трек 1 отсутствует в базе данных
Трек 2 отсутствует в базе данных
Трек 3 отсутствует в базе данных
Трек 4 отсутствует в базе данных
Трек 5 отсутствует в базе данных
Трек 6 отсутствует в базе данных
Трек 7 отсутствует в базе данных
Трек 8 отсутствует в базе данных
Трек 9 отсутствует в базе данных
Трек 10 отсутствует в базе данных

Ни одного трека нет в базе AccurateRip

Конец отчёта

==== Контрольная сумма отчёта 6FC39648CB3145CC2146C9A95AC7365C53405D927B4B2B71348866D7E41698B2 ====

DR Log
foobar2000 1.2.6 / Dynamic Range Meter 1.1.1
log date: 2017-07-26 04:57:29

––––––––––––––––––––––––––––––––––––––––
Analyzed: Focus / Ship Of Memories
––––––––––––––––––––––––––––––––––––––––

DR Peak RMS Duration Track
––––––––––––––––––––––––––––––––––––––––
DR9 -0.14 dB -10.49 dB 4:49 01-P’S March
DR10 -0.14 dB -11.43 dB 5:22 02-Can’t believe My Eyes
DR10 -0.14 dB -12.44 dB 3:02 03-Focus V
DR9 -0.14 dB -11.00 dB 5:50 04-Out Of Vesuvius
DR8 -0.13 dB -10.00 dB 4:39 05-Glider
DR9 -0.13 dB -11.34 dB 5:51 06-Red Sky At Night
DR8 -0.13 dB -10.30 dB 2:33 07-Spoke The Lord Creator
DR8 -0.13 dB -9.83 dB 2:44 08-Crackers
DR11 -0.14 dB -16.63 dB 1:47 09-Ship Of Memories
DR9 -0.15 dB -11.59 dB 3:26 10-Hocus Pocus (U.S. Single Version)
––––––––––––––––––––––––––––––––––––––––

Number of tracks: 10
Official DR value: DR9

Samplerate: 44100 Hz
Channels: 2
Bits per sample: 16
Bitrate: 967 kbps
Codec: FLAC
================================================================================

Focus - Hocus Pocus Box (2017) {13CD Box Set}

Track List CD8 – Focus Con Proby (1977):

01. Wingless [5:36]
02. Orion [4:08]
03. Night Flight [3:40]
04. Eddy [5:54]
05. Sneezing Bull [4:27]
06. Brother [5:19]
07. Tokyo Rose [5:07]
08. Maximum [8:41]
09. How Long [5:20]

EAC Log
Exact Audio Copy V1.1 from 23. June 2015

Отчёт EAC об извлечении, выполненном 25. июля 2017, 15:58

Focus / Focus Con Proby

Дисковод: ASUS DRW-24B3ST Adapter: 0 ID: 0

Режим чтения : Достоверность
Использование точного потока : Да
Отключение кэша аудио : Да
Использование указателей C2 : Нет

Коррекция смещения при чтении : 6
Способность читать области Lead-in и Lead-out : Нет
Заполнение пропущенных сэмплов тишиной : Да
Удаление блоков с тишиной в начале и конце : Нет
При вычислениях CRC использовались нулевые сэмплы : Да
Интерфейс : Установленный внешний ASPI-интерфейс

Выходной формат : Пользовательский кодировщик
Выбранный битрейт : 1024 kBit/s
Качество : Высокий
Добавление ID3-тега : Нет
Утилита сжатия : C:Program Files (x86)Exact Audio CopyFlacflac.exe
Дополнительные параметры : -V -8 -T "Date=%year%" -T "Genre=%genre%" %source%

TOC извлечённого CD

Трек | Старт | Длительность | Начальный сектор | Конечный сектор
––––––––––––––––––––––––––––––––––-
1 | 0:00.00 | 5:35.38 | 0 | 25162
2 | 5:35.38 | 4:07.49 | 25163 | 43736
3 | 9:43.12 | 3:40.16 | 43737 | 60252
4 | 13:23.28 | 5:54.28 | 60253 | 86830
5 | 19:17.56 | 4:26.61 | 86831 | 106841
6 | 23:44.42 | 5:19.36 | 106842 | 130802
7 | 29:04.03 | 5:06.49 | 130803 | 153801
8 | 34:10.52 | 8:40.64 | 153802 | 192865
9 | 42:51.41 | 5:19.52 | 192866 | 216842

Характеристики диапазона извлечения и сообщения об ошибках

Выбранный диапазон

Имя файла E:TorrentsFocus – 2017 – Hocus Pocus Box1977 – Focus Con ProbyFocus – Focus Con Proby.wav

Пиковый уровень 99.7 %
Скорость извлечения 8.1 X
Качество диапазона 100.0 %
CRC теста 19F4D32D
CRC копии 19F4D32D
Копирование… OK

Ошибок не произошло

AccurateRip: сводка

Трек 1 отсутствует в базе данных
Трек 2 отсутствует в базе данных
Трек 3 отсутствует в базе данных
Трек 4 отсутствует в базе данных
Трек 5 отсутствует в базе данных
Трек 6 отсутствует в базе данных
Трек 7 отсутствует в базе данных
Трек 8 отсутствует в базе данных
Трек 9 отсутствует в базе данных

Ни одного трека нет в базе AccurateRip

Конец отчёта

==== Контрольная сумма отчёта C217A72E7A6D382E9947886EEF046C73A6BF6676CEDFFF9744C116C40BCC8737 ====

DR Log
foobar2000 1.2.6 / Dynamic Range Meter 1.1.1
log date: 2017-07-26 05:00:55

––––––––––––––––––––––––––––––––––––––––
Analyzed: Focus / Focus Con Proby
––––––––––––––––––––––––––––––––––––––––

DR Peak RMS Duration Track
––––––––––––––––––––––––––––––––––––––––
DR9 -0.03 dB -10.96 dB 5:36 01-Wingless
DR10 -0.03 dB -12.29 dB 4:08 02-Orion
DR8 -0.02 dB -9.63 dB 3:40 03-Night Flight
DR9 -0.03 dB -11.42 dB 5:54 04-Eddy
DR9 -0.03 dB -10.40 dB 4:27 05-Sneezing Bull
DR9 -0.03 dB -11.74 dB 5:19 06-Brother
DR10 -0.03 dB -12.10 dB 5:07 07-Tokyo Rose
DR9 -0.03 dB -10.89 dB 8:41 08-Maximum
DR10 -0.03 dB -11.53 dB 5:20 09-How Long
––––––––––––––––––––––––––––––––––––––––

Number of tracks: 9
Official DR value: DR9

Samplerate: 44100 Hz
Channels: 2
Bits per sample: 16
Bitrate: 908 kbps
Codec: FLAC
================================================================================

Focus - Hocus Pocus Box (2017) {13CD Box Set}

Track List CD9 – Ian Akkerman & Thijs Van Leer – Focus (1985):

01. Russian Roulette [5:53]
02. King Kong [3:46]
03. Le Tango [4:57]
04. Indian Summer [5:52]
05. Beethoven’s Revenge (Bach-One-Turbo-Overdrive) [18:53]
06. Ole Judy [3:50]
07. Who’s Calling [16:22]

EAC Log
Exact Audio Copy V1.1 from 23. June 2015

Отчёт EAC об извлечении, выполненном 25. июля 2017, 17:02

Jan Akkerman & Thijs Van Leer / Focus

Дисковод: ASUS DRW-24B3ST Adapter: 0 ID: 0

Режим чтения : Достоверность
Использование точного потока : Да
Отключение кэша аудио : Да
Использование указателей C2 : Нет

Коррекция смещения при чтении : 6
Способность читать области Lead-in и Lead-out : Нет
Заполнение пропущенных сэмплов тишиной : Да
Удаление блоков с тишиной в начале и конце : Нет
При вычислениях CRC использовались нулевые сэмплы : Да
Интерфейс : Установленный внешний ASPI-интерфейс

Выходной формат : Пользовательский кодировщик
Выбранный битрейт : 1024 kBit/s
Качество : Высокий
Добавление ID3-тега : Нет
Утилита сжатия : C:Program Files (x86)Exact Audio CopyFlacflac.exe
Дополнительные параметры : -V -8 -T "Date=%year%" -T "Genre=%genre%" %source%

TOC извлечённого CD

Трек | Старт | Длительность | Начальный сектор | Конечный сектор
––––––––––––––––––––––––––––––––––-
1 | 0:00.00 | 5:53.35 | 0 | 26509
2 | 5:53.35 | 3:45.56 | 26510 | 43440
3 | 9:39.16 | 4:57.20 | 43441 | 65735
4 | 14:36.36 | 5:51.65 | 65736 | 92125
5 | 20:28.26 | 18:53.11 | 92126 | 177111
6 | 39:21.37 | 3:50.22 | 177112 | 194383
7 | 43:11.59 | 16:22.16 | 194384 | 268049

Характеристики диапазона извлечения и сообщения об ошибках

Выбранный диапазон

Имя файла E:TorrentsFocus – 2017 – Hocus Pocus Box1985 – Ian Akkerman & Tijs Van Leer – FocusJan Akkerman & Thijs Van Leer – Focus.wav

Пиковый уровень 98.7 %
Скорость извлечения 8.4 X
Качество диапазона 99.9 %
CRC теста 37C10D11
CRC копии 37C10D11
Копирование… OK

Ошибок не произошло

AccurateRip: сводка

Трек 1 отсутствует в базе данных
Трек 2 отсутствует в базе данных
Трек 3 отсутствует в базе данных
Трек 4 отсутствует в базе данных
Трек 5 отсутствует в базе данных
Трек 6 отсутствует в базе данных
Трек 7 отсутствует в базе данных

Ни одного трека нет в базе AccurateRip

Конец отчёта

==== Контрольная сумма отчёта 1B2BF2BA25A1E2B4D93C3869055874008A1060D4D9F7C75DA03EFFD31228DC64 ====

DR Log
foobar2000 1.2.6 / Dynamic Range Meter 1.1.1
log date: 2017-07-26 05:03:46

––––––––––––––––––––––––––––––––––––––––
Analyzed: Jan Akkerman & Thijs Van Leer / Focus
––––––––––––––––––––––––––––––––––––––––

DR Peak RMS Duration Track
––––––––––––––––––––––––––––––––––––––––
DR11 -0.11 dB -12.30 dB 5:53 01-Russian Roulette
DR12 -0.11 dB -14.71 dB 3:46 02-King Kong
DR10 -0.11 dB -12.70 dB 4:57 03-Le Tango
DR12 -0.11 dB -14.45 dB 5:52 04-Indian Summer
DR10 -0.11 dB -12.09 dB 18:53 05-Beethoven’s Revenge (Bach-One-Turbo-Overdrive)
DR10 -0.11 dB -11.91 dB 3:50 06-Ole Judy
DR12 -0.11 dB -14.85 dB 16:22 07-Who’s Calling
––––––––––––––––––––––––––––––––––––––––

Number of tracks: 7
Official DR value: DR11

Samplerate: 44100 Hz
Channels: 2
Bits per sample: 16
Bitrate: 861 kbps
Codec: FLAC
================================================================================

Focus - Hocus Pocus Box (2017) {13CD Box Set}

Track List CD10 – Focus 8 (2002):

01. Rock & Rio [3:27]
02. Tamara’s Move (allegro-adagio-allegro) [5:18]
03. Fretless Love [6:09]
04. Hurkey Turkey [4:15]
05. De Ti O De Mi [6:30]
06. Focus 8 [6:19]
07. Sto Ces Raditi Ostatac Zivota? [5:26]
08. Neurotika – rehearsel take [3:47]
09. Brother [5:40]
10. Blizu Tebe [6:38]
11. Flower Shower [5:42]

EAC Log
Exact Audio Copy V1.1 from 23. June 2015

Отчёт EAC об извлечении, выполненном 25. июля 2017, 17:41

Focus / Focus 8

Дисковод: ASUS DRW-24B3ST Adapter: 0 ID: 0

Режим чтения : Достоверность
Использование точного потока : Да
Отключение кэша аудио : Да
Использование указателей C2 : Нет

Коррекция смещения при чтении : 6
Способность читать области Lead-in и Lead-out : Нет
Заполнение пропущенных сэмплов тишиной : Да
Удаление блоков с тишиной в начале и конце : Нет
При вычислениях CRC использовались нулевые сэмплы : Да
Интерфейс : Установленный внешний ASPI-интерфейс

Выходной формат : Пользовательский кодировщик
Выбранный битрейт : 1024 kBit/s
Качество : Высокий
Добавление ID3-тега : Нет
Утилита сжатия : C:Program Files (x86)Exact Audio CopyFlacflac.exe
Дополнительные параметры : -V -8 -T "Date=%year%" -T "Genre=%genre%" %source%

TOC извлечённого CD

Трек | Старт | Длительность | Начальный сектор | Конечный сектор
––––––––––––––––––––––––––––––––––-
1 | 0:00.00 | 3:27.26 | 0 | 15550
2 | 3:27.26 | 5:17.64 | 15551 | 39389
3 | 8:45.15 | 6:08.66 | 39390 | 67055
4 | 14:54.06 | 4:15.02 | 67056 | 86182
5 | 19:09.08 | 6:30.35 | 86183 | 115467
6 | 25:39.43 | 6:19.00 | 115468 | 143892
7 | 31:58.43 | 5:26.35 | 143893 | 168377
8 | 37:25.03 | 3:47.30 | 168378 | 185432
9 | 41:12.33 | 5:39.65 | 185433 | 210922
10 | 46:52.23 | 6:38.12 | 210923 | 240784
11 | 53:30.35 | 5:42.12 | 240785 | 266446

Характеристики диапазона извлечения и сообщения об ошибках

Выбранный диапазон

Имя файла E:TorrentsFocus – 2017 – Hocus Pocus Box2002 – Focus 8Focus – Focus 8.wav

Пиковый уровень 100.0 %
Скорость извлечения 8.5 X
Качество диапазона 100.0 %
CRC теста 20D022FF
CRC копии 20D022FF
Копирование… OK

Ошибок не произошло

AccurateRip: сводка

Трек 1 отсутствует в базе данных
Трек 2 отсутствует в базе данных
Трек 3 отсутствует в базе данных
Трек 4 отсутствует в базе данных
Трек 5 отсутствует в базе данных
Трек 6 отсутствует в базе данных
Трек 7 отсутствует в базе данных
Трек 8 отсутствует в базе данных
Трек 9 отсутствует в базе данных
Трек 10 отсутствует в базе данных
Трек 11 отсутствует в базе данных

Ни одного трека нет в базе AccurateRip

Конец отчёта

==== Контрольная сумма отчёта 42A40F8D508906511E18517A39FE4A99E322DC47A83E1DDA23CEC91967F97450 ====

DR Log
foobar2000 1.2.6 / Dynamic Range Meter 1.1.1
log date: 2017-07-26 05:12:43

––––––––––––––––––––––––––––––––––––––––
Analyzed: Focus / Focus 8
––––––––––––––––––––––––––––––––––––––––

DR Peak RMS Duration Track
––––––––––––––––––––––––––––––––––––––––
DR8 0.00 dB -9.47 dB 3:27 01-Rock & Rio
DR8 0.00 dB -10.31 dB 5:18 02-Tamara’s Move (allegro-adagio-allegro)
DR9 0.00 dB -10.24 dB 6:09 03-Fretless Love
DR10 -0.48 dB -12.21 dB 4:15 04-Hurkey Turkey
DR9 0.00 dB -11.66 dB 6:30 05-De Ti O De Mi
DR8 0.00 dB -9.21 dB 6:19 06-Focus 8
DR7 -0.18 dB -9.23 dB 5:26 07-Sto Ces Raditi Ostatac Zivota?
DR8 0.00 dB -10.04 dB 3:47 08-Neurotika – rehearsel take
DR8 -0.10 dB -10.33 dB 5:40 09-Brother
DR9 -0.15 dB -12.26 dB 6:38 10-Blizu Tebe
DR9 -0.15 dB -10.55 dB 5:42 11-Flower Shower
––––––––––––––––––––––––––––––––––––––––

Number of tracks: 11
Official DR value: DR9

Samplerate: 44100 Hz
Channels: 2
Bits per sample: 16
Bitrate: 913 kbps
Codec: FLAC
================================================================================

Focus - Hocus Pocus Box (2017) {13CD Box Set}

Track List CD11 – Focus 9 / New Skin (2006):

01. Black Beauty [4:14]
02. Focus 7 [5:23]
03. Hurkey Turkey 2 [4:06]
04. Sylvia’s Stepson – Ubatuba [4:50]
05. Niels’ Skin [6:06]
06. Just Like Eddy [5:10]
07. Aya-Yuppie-Hippie-Yee [5:19]
08. Focus 9 [7:58]
09. Curtain Call [4:36]
10. Ode To Venus [4:30]
11. European Rap(sody) [10:24]
12. Pim [3:02]
13. It Takes 2 2 Tango [8:03]
14. Brazil Love [6:14]

EAC Log
Exact Audio Copy V1.1 from 23. June 2015

Отчёт EAC об извлечении, выполненном 25. июля 2017, 19:05

Focus / Focus 9/New Skin

Дисковод: ASUS DRW-24B3ST Adapter: 0 ID: 0

Режим чтения : Достоверность
Использование точного потока : Да
Отключение кэша аудио : Да
Использование указателей C2 : Нет

Коррекция смещения при чтении : 6
Способность читать области Lead-in и Lead-out : Нет
Заполнение пропущенных сэмплов тишиной : Да
Удаление блоков с тишиной в начале и конце : Нет
При вычислениях CRC использовались нулевые сэмплы : Да
Интерфейс : Установленный внешний ASPI-интерфейс

Выходной формат : Пользовательский кодировщик
Выбранный битрейт : 1024 kBit/s
Качество : Высокий
Добавление ID3-тега : Нет
Утилита сжатия : C:Program Files (x86)Exact Audio CopyFlacflac.exe
Дополнительные параметры : -V -8 -T "Date=%year%" -T "Genre=%genre%" %source%

TOC извлечённого CD

Трек | Старт | Длительность | Начальный сектор | Конечный сектор
––––––––––––––––––––––––––––––––––-
1 | 0:00.00 | 4:14.33 | 0 | 19082
2 | 4:14.33 | 5:23.20 | 19083 | 43327
3 | 9:37.53 | 4:05.42 | 43328 | 61744
4 | 13:43.20 | 4:50.10 | 61745 | 83504
5 | 18:33.30 | 6:05.63 | 83505 | 110942
6 | 24:39.18 | 5:09.62 | 110943 | 134179
7 | 29:49.05 | 5:18.70 | 134180 | 158099
8 | 35:08.00 | 7:57.53 | 158100 | 193927
9 | 43:05.53 | 4:36.07 | 193928 | 214634
10 | 47:41.60 | 4:30.30 | 214635 | 234914
11 | 52:12.15 | 10:23.43 | 234915 | 281682
12 | 62:35.58 | 3:01.45 | 281683 | 295302
13 | 65:37.28 | 8:02.58 | 295303 | 331510
14 | 73:40.11 | 6:14.21 | 331511 | 359581

Характеристики диапазона извлечения и сообщения об ошибках

Выбранный диапазон

Имя файла E:TorrentsFocus – 2017 – Hocus Pocus Box2006 – Focus 9 – New SkinFocus – Focus 9,New Skin.wav

Пиковый уровень 100.0 %
Скорость извлечения 9.9 X
Качество диапазона 99.9 %
CRC теста DB7EAE84
CRC копии DB7EAE84
Копирование… OK

Ошибок не произошло

AccurateRip: сводка

Трек 1 отсутствует в базе данных
Трек 2 отсутствует в базе данных
Трек 3 отсутствует в базе данных
Трек 4 отсутствует в базе данных
Трек 5 отсутствует в базе данных
Трек 6 отсутствует в базе данных
Трек 7 отсутствует в базе данных
Трек 8 отсутствует в базе данных
Трек 9 отсутствует в базе данных
Трек 10 отсутствует в базе данных
Трек 11 отсутствует в базе данных
Трек 12 отсутствует в базе данных
Трек 13 отсутствует в базе данных
Трек 14 отсутствует в базе данных

Ни одного трека нет в базе AccurateRip

Конец отчёта

==== Контрольная сумма отчёта 82ECFD86CD5ADC1D366841A815CF799CF46CF6C8D54E5C6E7EF15220A9243A50 ====

DR Log
foobar2000 1.2.6 / Dynamic Range Meter 1.1.1
log date: 2017-07-26 05:16:28

––––––––––––––––––––––––––––––––––––––––
Analyzed: Focus / Focus 9/New Skin
––––––––––––––––––––––––––––––––––––––––

DR Peak RMS Duration Track
––––––––––––––––––––––––––––––––––––––––
DR8 -0.02 dB -9.28 dB 4:14 01-Black Beauty
DR8 -0.04 dB -11.39 dB 5:23 02-Focus 7
DR9 -0.10 dB -10.05 dB 4:06 03-Hurkey Turkey 2
DR8 -0.08 dB -9.32 dB 4:50 04-Sylvia’s Stepson – Ubatuba
DR9 -0.07 dB -10.94 dB 6:06 05-Niels’ Skin
DR8 -0.06 dB -12.73 dB 5:10 06-Just Like Eddy
DR8 0.00 dB -9.32 dB 5:19 07-Aya-Yuppie-Hippie-Yee
DR11 -0.04 dB -13.99 dB 7:58 08-Focus 9
DR8 -0.10 dB -9.85 dB 4:36 09-Curtain Call
DR7 0.00 dB -9.49 dB 4:30 10-Ode To Venus
DR8 -0.10 dB -9.57 dB 10:24 11-European Rap(sody)
DR8 -0.02 dB -10.16 dB 3:02 12-Pim
DR8 0.00 dB -9.72 dB 8:03 13-It Takes 2 2 Tango
DR7 0.00 dB -9.96 dB 6:14 14-Brazil Love
––––––––––––––––––––––––––––––––––––––––

Number of tracks: 14
Official DR value: DR8

Samplerate: 44100 Hz
Channels: 2
Bits per sample: 16
Bitrate: 825 kbps
Codec: FLAC
================================================================================

Focus - Hocus Pocus Box (2017) {13CD Box Set}

Track List CD12 – Focus X (2012):

01. Father Bacchus [4:04]
02. Focus 10 [5:48]
03. Victoria [5:28]
04. Amok in Kindergarten [5:00]
05. All Hens on Deck [5:45]
06. Birds Come Fly Over (Le Tango) [5:26]
07. Hoeratio [5:38]
08. Talk of the Clown [2:59]
09. Message Magic [3:53]
10. Crossroads [5:39]

EAC Log
Exact Audio Copy V1.1 from 23. June 2015

Отчёт EAC об извлечении, выполненном 25. июля 2017, 19:19

Focus / Focus X

Дисковод: ASUS DRW-24B3ST Adapter: 0 ID: 0

Режим чтения : Достоверность
Использование точного потока : Да
Отключение кэша аудио : Да
Использование указателей C2 : Нет

Коррекция смещения при чтении : 6
Способность читать области Lead-in и Lead-out : Нет
Заполнение пропущенных сэмплов тишиной : Да
Удаление блоков с тишиной в начале и конце : Нет
При вычислениях CRC использовались нулевые сэмплы : Да
Интерфейс : Установленный внешний ASPI-интерфейс

Выходной формат : Пользовательский кодировщик
Выбранный битрейт : 1024 kBit/s
Качество : Высокий
Добавление ID3-тега : Нет
Утилита сжатия : C:Program Files (x86)Exact Audio CopyFlacflac.exe
Дополнительные параметры : -V -8 -T "Date=%year%" -T "Genre=%genre%" %source%

TOC извлечённого CD

Трек | Старт | Длительность | Начальный сектор | Конечный сектор
––––––––––––––––––––––––––––––––––-
1 | 0:00.00 | 4:03.57 | 0 | 18281
2 | 4:03.57 | 5:48.16 | 18282 | 44397
3 | 9:51.73 | 5:27.68 | 44398 | 68990
4 | 15:19.66 | 5:00.28 | 68991 | 91518
5 | 20:20.19 | 5:44.45 | 91519 | 117363
6 | 26:04.64 | 5:26.06 | 117364 | 141819
7 | 31:30.70 | 5:38.01 | 141820 | 167170
8 | 37:08.71 | 2:58.69 | 167171 | 180589
9 | 40:07.65 | 3:52.49 | 180590 | 198038
10 | 44:00.39 | 5:39.25 | 198039 | 223488

Характеристики диапазона извлечения и сообщения об ошибках

Выбранный диапазон

Имя файла E:TorrentsFocus – 2017 – Hocus Pocus Box2012 – Focus XFocus – Focus X.wav

Пиковый уровень 100.0 %
Скорость извлечения 8.2 X
Качество диапазона 100.0 %
CRC теста 6FF4FD3D
CRC копии 6FF4FD3D
Копирование… OK

Ошибок не произошло

AccurateRip: сводка

Трек 1 точность не определена (достоверность 13) [B5F7E577], AccurateRip вернул [D4BBB1A6] (AR v2)
Трек 2 точность не определена (достоверность 14) [BF2772C9], AccurateRip вернул [2757099D] (AR v2)
Трек 3 точность не определена (достоверность 12) [EFDEF5AF], AccurateRip вернул [EEBB7572] (AR v2)
Трек 4 точность не определена (достоверность 14) [5D2917E6], AccurateRip вернул [7C2C9698] (AR v2)
Трек 5 точность не определена (достоверность 14) [67EBC219], AccurateRip вернул [0D4D0667] (AR v2)
Трек 6 точность не определена (достоверность 14) [AB019BA6], AccurateRip вернул [6F7F66E8] (AR v2)
Трек 7 точность не определена (достоверность 14) [C9DDE95F], AccurateRip вернул [FCA9F359] (AR v2)
Трек 8 точность не определена (достоверность 14) [C9AD6A6C], AccurateRip вернул [8DFD7414] (AR v2)
Трек 9 точность не определена (достоверность 14) [E0F974B4], AccurateRip вернул [04305975] (AR v2)
Трек 10 точность не определена (достоверность 14) [0CE200FA], AccurateRip вернул [4C671361] (AR v2)

Ни один трек не прошёл проверки на точность
В вашей базе может быть иной вариант штамповки диска

Конец отчёта

==== Контрольная сумма отчёта 00575883A287A5255BFFD5433D77318D0528B520FA2B13D1BF9C31275BF4E984 ====

DR Log
foobar2000 1.2.6 / Dynamic Range Meter 1.1.1
log date: 2017-07-26 05:19:31

––––––––––––––––––––––––––––––––––––––––
Analyzed: Focus / Focus X
––––––––––––––––––––––––––––––––––––––––

DR Peak RMS Duration Track
––––––––––––––––––––––––––––––––––––––––
DR7 -0.01 dB -8.75 dB 4:04 01-Father Bacchus
DR9 -0.28 dB -11.50 dB 5:48 02-Focus 10
DR7 0.00 dB -9.36 dB 5:28 03-Victoria
DR9 0.00 dB -10.98 dB 5:00 04-Amok in Kindergarten
DR7 0.00 dB -8.45 dB 5:45 05-All Hens on Deck
DR8 0.00 dB -11.10 dB 5:26 06-Birds Come Fly Over (Le Tango)
DR8 0.00 dB -9.29 dB 5:38 07-Hoeratio
DR11 -0.10 dB -12.14 dB 2:59 08-Talk of the Clown
DR8 0.00 dB -10.42 dB 3:53 09-Message Magic
DR8 0.00 dB -9.38 dB 5:39 10-Crossroads
––––––––––––––––––––––––––––––––––––––––

Number of tracks: 10
Official DR value: DR8

Samplerate: 44100 Hz
Channels: 2
Bits per sample: 16
Bitrate: 912 kbps
Codec: FLAC
================================================================================

Focus - Hocus Pocus Box (2017) {13CD Box Set}

Focus - Hocus Pocus Box (2017) {13CD Box Set}

Track List CD13 – Hocus Pocus – The Best Of Focus (2001/2017):

01. Hocus Pocus [6:43]
02. Anonymus [6:35]
03. House Of The King [2:51]
04. Focus – Instrumental [9:47]
05. Janis [3:08]
06. Focus II [4:04]
07. Tommy [3:25]
08. Sylvia [3:31]
09. Focus III [6:06]
10. Harem Scarem [5:52]
11. Mother Focus [3:06]
12. Focus IV [3:58]
13. Bennie Helder [3:31]
14. Glider [4:41]
15. Red Sky At Night [5:49]
16. Hocus Pocus (U.S. Single Version) [3:25]

EAC Log
Exact Audio Copy V1.1 from 23. June 2015

Отчёт EAC об извлечении, выполненном 25. июля 2017, 19:40

Focus / Hocus Pocus – The Best Of Focus

Дисковод: ASUS DRW-24B3ST Adapter: 0 ID: 0

Режим чтения : Достоверность
Использование точного потока : Да
Отключение кэша аудио : Да
Использование указателей C2 : Нет

Коррекция смещения при чтении : 6
Способность читать области Lead-in и Lead-out : Нет
Заполнение пропущенных сэмплов тишиной : Да
Удаление блоков с тишиной в начале и конце : Нет
При вычислениях CRC использовались нулевые сэмплы : Да
Интерфейс : Установленный внешний ASPI-интерфейс

Выходной формат : Пользовательский кодировщик
Выбранный битрейт : 1024 kBit/s
Качество : Высокий
Добавление ID3-тега : Нет
Утилита сжатия : C:Program Files (x86)Exact Audio CopyFlacflac.exe
Дополнительные параметры : -V -8 -T "Date=%year%" -T "Genre=%genre%" %source%

TOC извлечённого CD

Трек | Старт | Длительность | Начальный сектор | Конечный сектор
––––––––––––––––––––––––––––––––––-
1 | 0:00.00 | 6:42.49 | 0 | 30198
2 | 6:42.49 | 6:35.05 | 30199 | 59828
3 | 13:17.54 | 2:51.18 | 59829 | 72671
4 | 16:08.72 | 9:46.60 | 72672 | 116681
5 | 25:55.57 | 3:08.18 | 116682 | 130799
6 | 29:04.00 | 4:04.13 | 130800 | 149112
7 | 33:08.13 | 3:24.55 | 149113 | 164467
8 | 36:32.68 | 3:30.68 | 164468 | 180285
9 | 40:03.61 | 6:05.70 | 180286 | 207730
10 | 46:09.56 | 5:52.11 | 207731 | 234141
11 | 52:01.67 | 3:06.10 | 234142 | 248101
12 | 55:08.02 | 3:57.51 | 248102 | 265927
13 | 59:05.53 | 3:30.68 | 265928 | 281745
14 | 62:36.46 | 4:40.74 | 281746 | 302819
15 | 67:17.45 | 5:48.61 | 302820 | 328980
16 | 73:06.31 | 3:24.65 | 328981 | 344345

Характеристики диапазона извлечения и сообщения об ошибках

Выбранный диапазон

Имя файла E:TorrentsFocus – 2017 – Hocus Pocus Box2001 – Hocus Pocus – The Best Of FocusFocus – Hocus Pocus – The Best Of Focus.wav

Пиковый уровень 100.0 %
Скорость извлечения 9.6 X
Качество диапазона 100.0 %
CRC теста 3BEAF84D
CRC копии 3BEAF84D
Копирование… OK

Ошибок не произошло

AccurateRip: сводка

Трек 1 отсутствует в базе данных
Трек 2 отсутствует в базе данных
Трек 3 отсутствует в базе данных
Трек 4 отсутствует в базе данных
Трек 5 отсутствует в базе данных
Трек 6 отсутствует в базе данных
Трек 7 отсутствует в базе данных
Трек 8 отсутствует в базе данных
Трек 9 отсутствует в базе данных
Трек 10 отсутствует в базе данных
Трек 11 отсутствует в базе данных
Трек 12 отсутствует в базе данных
Трек 13 отсутствует в базе данных
Трек 14 отсутствует в базе данных
Трек 15 отсутствует в базе данных
Трек 16 отсутствует в базе данных

Ни одного трека нет в базе AccurateRip

Конец отчёта

==== Контрольная сумма отчёта 843516EABDEA2814897DD3682EB98C6F4C3944671C826ECACA3209A96DD78638 ====

DR Log
foobar2000 1.2.6 / Dynamic Range Meter 1.1.1
log date: 2017-07-26 05:06:43

––––––––––––––––––––––––––––––––––––––––
Analyzed: Focus / Hocus Pocus – The Best Of Focus
––––––––––––––––––––––––––––––––––––––––

DR Peak RMS Duration Track
––––––––––––––––––––––––––––––––––––––––
DR7 0.00 dB -9.38 dB 6:43 01-Hocus Pocus
DR6 0.00 dB -7.44 dB 6:35 02-Anonymus
DR8 0.00 dB -10.75 dB 2:51 03-House Of The King
DR6 0.00 dB -8.03 dB 9:47 04-Focus – Instrumental
DR8 -0.01 dB -9.85 dB 3:08 05-Janis
DR7 0.00 dB -9.87 dB 4:04 06-Focus II
DR8 -0.02 dB -10.37 dB 3:25 07-Tommy
DR7 0.00 dB -8.23 dB 3:31 08-Sylvia
DR8 0.00 dB -12.63 dB 6:06 09-Focus III
DR10 -0.04 dB -11.52 dB 5:52 10-Harem Scarem
DR11 0.00 dB -12.43 dB 3:06 11-Mother Focus
DR12 0.00 dB -15.27 dB 3:58 12-Focus IV
DR10 -0.10 dB -11.58 dB 3:31 13-Bennie Helder
DR8 -1.00 dB -10.41 dB 4:41 14-Glider
DR9 -0.10 dB -10.81 dB 5:49 15-Red Sky At Night
DR6 -1.00 dB -9.47 dB 3:25 16-Hocus Pocus (U.S. Single Version)
––––––––––––––––––––––––––––––––––––––––

Number of tracks: 16
Official DR value: DR8

Samplerate: 44100 Hz
Channels: 2
Bits per sample: 16
Bitrate: 899 kbps
Codec: FLAC
================================================================================

Focus - Hocus Pocus Box (2017) {13CD Box Set}

All thanks go to Копысов

>>> My Blog <<<

Download from icerbox.com:

Focus – Hocus Pocus Box (2017) {13CD Box Set} Download, Warez, DDL, Free, Full Album, Torrent, Legal.

Download