Flying Colors – Live In Europe (2013) [2CD] Repost

Download
Flying Colors - Live In Europe (2013) [2CD] Repost

Flying Colors – Live In Europe (2013) [2CD]
EAC Rip | FLAC: Image+Cue+Log | 697 Mb | MP3 CBR 320 kbps | 267 Mb | Scans | 186 Mb | TTime: 01:40:15
Mascot Label Group/Music Theories Rec. | MTR 74172
Progressive Rock, Classic Rock

Flying Colors launched in 2012 following a formation that began with a simple idea: virtuoso musicians and a pop singer joining together to make new-fashioned music the old fashioned way. Refreshing, classic, old and new, the recordings are saturated with the many styles, tones and hues of the players who in becoming a band delivered a unique fusion of vintage craftsmanship and contemporary music. Flying Colors is Mike Portnoy (Dream Theater), Dave LaRue (Joe Satriani) Neal Morse (Spock s Beard), Casey McPherson (Alpha Rev), and Steve Morse (Deep Purple).

Flying Colors - Live In Europe (2013) [2CD] Repost
Flying Colors
Wikipedia | Amazon

CD1

01. Blue Ocean (07:29)
02. Shoulda Coulda Would (06:05)
03. Love Is What I’m Waiting For (05:21)
04. Can’t Find A Way (06:02)
05. The Storm (06:02)
06. Odyssey (06:52)
07. Forever In A Daze (04:28)
08. Hallelujah (05:18)
09. Better Than Walking Away (05:02)

CD2

01. Kayla (07:05)
02. Fool In My Heart (03:46)
03. Spur Of The Moment (Dave Larue) (01:26)
04. Repentance (Dream Theater) (05:06)
05. June (Spock’s Beard) (05:58)
06. All Falls Down (03:54)
07. Everything Changes (08:04)
08. Infinite Fire (12:17)

Produced by Bill Evans

The Band

• Casey McPherson (Alpha Rev, Endochine, Johnny Goudie, Joseph King) – vocals, rhythm guitars
• Mike Portnoy (Dream Theater, Transatlantic, Liquid Tension Experiment, Neal Morse, OSI, Avenged Sevenfold, Adrenaline Mob, Stone Sour, Bigelf, The Winery Dogs) – drums, vocals
• Steve Morse (Dixie Dregs, Kansas, Deep Purple, Living Loud, Angelfire) – lead guitar
• Dave LaRue (Joe Satriani, Dixie Dregs, Steve Morse Band, Planet X, John Petrucci) – bass
• Neal Morse (Spock’s Beard, Transatlantic, Eric Burdon, Yellow Matter Custard) – keyboards, vocals

EAC Log CD1
Exact Audio Copy V1.0 beta 3 from 29. August 2011

EAC extraction logfile from 6. January 2014, 15:51

Flying Colors / Live In Europe (CD 1)

Used drive : PLEXTOR CD-R PX-240A Adapter: 0 ID: 0

Read mode : Secure
Utilize accurate stream : Yes
Defeat audio cache : Yes
Make use of C2 pointers : No

Read offset correction : 6
Overread into Lead-In and Lead-Out : No
Fill up missing offset samples with silence : Yes
Delete leading and trailing silent blocks : No
Null samples used in CRC calculations : Yes
Used interface : Installed external ASPI interface

Used output format : Internal WAV Routines
Sample format : 44.100 Hz; 16 Bit; Stereo

TOC of the extracted CD

Track | Start | Length | Start sector | End sector
––––––––––––––––––––––––––––-
1 | 0:00.00 | 7:29.06 | 0 | 33680
2 | 7:29.06 | 6:04.57 | 33681 | 61037
3 | 13:33.63 | 5:20.70 | 61038 | 85107
4 | 18:54.58 | 6:01.40 | 85108 | 112222
5 | 24:56.23 | 6:01.42 | 112223 | 139339
6 | 30:57.65 | 6:52.32 | 139340 | 170271
7 | 37:50.22 | 4:28.25 | 170272 | 190396
8 | 42:18.47 | 5:18.25 | 190397 | 214271
9 | 47:36.72 | 5:02.02 | 214272 | 236923

Range status and errors

Selected range

Filename Z:datahexonutSeedingFlying Colors2013-Live In EuropeLive In Europe (CD 1).wav

Peak level 99.9 %
Extraction speed 7.6 X
Range quality 99.9 %
Test CRC 3BF9B4FE
Copy CRC 3BF9B4FE
Copy OK

No errors occurred

AccurateRip summary

Track 1 accurately ripped (confidence 9) [96BE0784] (AR v2)
Track 2 accurately ripped (confidence 9) [81ACBAE6] (AR v2)
Track 3 accurately ripped (confidence 9) [A31A38B7] (AR v2)
Track 4 accurately ripped (confidence 9) [B39D7054] (AR v2)
Track 5 accurately ripped (confidence 9) [6A569D8E] (AR v2)
Track 6 accurately ripped (confidence 9) [7EB7847A] (AR v2)
Track 7 accurately ripped (confidence 9) [69454942] (AR v2)
Track 8 accurately ripped (confidence 9) [9C6E10BF] (AR v2)
Track 9 accurately ripped (confidence 9) [8A41C6B7] (AR v2)

All tracks accurately ripped

End of status report

==== Log checksum 5459124DCF48DDCB2F0EFF55ABBC9C9CC29CE12E58CF42F28D0DA1F4A44770EA ====

EAC Log CD2
Exact Audio Copy V1.0 beta 3 from 29. August 2011

EAC extraction logfile from 6. January 2014, 16:04

Flying Colors / Live In Europe (CD 2)

Used drive : PLEXTOR CD-R PX-240A Adapter: 0 ID: 0

Read mode : Secure
Utilize accurate stream : Yes
Defeat audio cache : Yes
Make use of C2 pointers : No

Read offset correction : 6
Overread into Lead-In and Lead-Out : No
Fill up missing offset samples with silence : Yes
Delete leading and trailing silent blocks : No
Null samples used in CRC calculations : Yes
Used interface : Installed external ASPI interface

Used output format : Internal WAV Routines
Sample format : 44.100 Hz; 16 Bit; Stereo

TOC of the extracted CD

Track | Start | Length | Start sector | End sector
––––––––––––––––––––––––––––-
1 | 0:00.00 | 7:05.05 | 0 | 31879
2 | 7:05.05 | 3:46.10 | 31880 | 48839
3 | 10:51.15 | 1:26.29 | 48840 | 55318
4 | 12:17.44 | 5:06.23 | 55319 | 78291
5 | 17:23.67 | 5:58.29 | 78292 | 105170
6 | 23:22.21 | 3:53.53 | 105171 | 122698
7 | 27:15.74 | 8:03.40 | 122699 | 158963
8 | 35:19.39 | 12:17.06 | 158964 | 214244

Range status and errors

Selected range

Filename Z:datahexonutSeedingFlying Colors2013-Live In EuropeLive In Europe (CD 2).wav

Peak level 100.0 %
Extraction speed 8.4 X
Range quality 100.0 %
Test CRC 459EFC0B
Copy CRC 459EFC0B
Copy OK

No errors occurred

AccurateRip summary

Track 1 accurately ripped (confidence 8) [C53532A2] (AR v2)
Track 2 accurately ripped (confidence 8) [56F2FEDA] (AR v2)
Track 3 accurately ripped (confidence 8) [5643C881] (AR v2)
Track 4 accurately ripped (confidence 8) [1FC4DD23] (AR v2)
Track 5 accurately ripped (confidence 8) [16091C80] (AR v2)
Track 6 accurately ripped (confidence 8) [B0080BC8] (AR v2)
Track 7 accurately ripped (confidence 8) [6CE966B3] (AR v2)
Track 8 accurately ripped (confidence 8) [8711B1F3] (AR v2)

All tracks accurately ripped

End of status report

==== Log checksum 6DB86ACCFDB612CA1E4FCA4335F9893BAA611658A40DC1909A79A50CFD5C2C70 ====

Many thanks to the original uploader: hexonut

SEE also:
Dream Theater 1989 When Dream And Day Unite [Japan (mini LP) SHM-CD 2013]
Dream Theater 1992 Images And Words [Japanese Ed. 1997]
Dream Theater 2004 Live At Budokan [Japanese Ed.] 3xCD
Dream Theater 2004 Double Feature – Images And Words: Live In Tokyo / 5 Years In A Livetime [2xDVD]
Dream Theater 2006 Score: 20th Anniversary World Tour [2xDVD]
Dream Theater 2006 Dark Side Of The Moon (Official Bootleg) 2xCD
Dream Theater 2006 Dark Side Of The Moon (Official Bootleg) [DVD]
Dream Theater 2013 Dream Theater [Japanese Ed.]
Dream Theater 2016 The Astonishing [2CD, Digipak]

Flying Colors 2012 Flying Colors [Limited Ed.]
Flying Colors 2014 Second Nature [Digipak]

Jordan Rudess 2001 Feeding The Wheel
Jordan Rudess 2004 Rhythm Of Time
Jordan Rudess 2006 Prime Cuts
Jordan Rudess 2007 The Road Home [Digipak]

Liquid Tension Experiment 1998 Liquid Tension Experiment
Liquid Tension Experiment 1999 Liquid Tension Experiment 2
Liquid Trio Experiment 2007 Spontaneous Combustion
Liquid Tension Experiment 2009 LTE Live 2008 [Limited Ed. Boxset, 6 CDs]

Paul Gilbert 1998 Flying Dog [Japanese Ed.]
Paul Gilbert 2005 Space Ship Live [DVD]
Paul Gilbert & Freddie Nelson 2009 United States
Paul Gilbert 2010 Fuzz Universe
Paul Gilbert 2012 Vibrato
Paul Gilbert 2014 Stone Pushing Uphill Man

The Prog World Orchestra 2012 A Proggy Christmas

Seventh Key 2001 Seventh Key
Seventh Key 2004 The Raging Fire [Japanese Ed.]
Seventh Key 2005 Live In Atlanta
Seventh Key 2013 I Will Survive
Seventh Key 2013 I Will Survive [Japanese Ed. 2014]

Symphonic Theater Of Dreams 2012 A Symphonic Tribute To Dream Theater

Transatlantic 2000 SMPTe [Japan HQCD, 2014] 2xCD
Transatlantic 2001 Bridge Across Forever [Japan HQCD, 2014] 2xCD
Transatlantic 2009 The Whirlwind [Japan HQCD, 2014] 2xCD
Transatlantic 2014 Kaleidoscope [Japan HQCD] 2xCD

V.A. 1999 Voices: A Tribute To Dream Theater [2CD]

……
Welcome to My Blog for more wonderful music!
……
Password: pass

Flying Colors – Live In Europe (2013) [2CD] Repost Download, Warez, DDL, Free, Full Album, Torrent, Legal.

Download