Fleetwood Mac – Tusk (1979) | ViralVideoPk

Daily Dose of Free Downloads

Fleetwood Mac – Tusk (1979)

Download

Fleetwood Mac - Tusk (1979)

Fleetwood Mac – Tusk (1979)
EAC | Flac(Image) + Cue + Log & MP3 CBR 320Kbps
1990 | Warner Bros, 3350-2 | ~ 434 or 171 Mb | Scans(png) -> 39 Mb
Soft Rock / Classic Rock

More than any other Fleetwood Mac album, Tusk is born of a particular time and place – it could only have been created in the aftermath of Rumours, which shattered sales records, which in turn gave the group a blank check for its next album. But if they were falling apart during the making of Rumours, they were officially broken and shattered during the making of Tusk, and that disconnect between bandmembers resulted in a sprawling, incoherent, and utterly brilliant 20-track double album. At the time of its release, it was a flop, never reaching the top of the charts and never spawning a true hit single, despite two well-received Top Ten hits. Coming after the monumental Rumours, this was a huge disappointment, but the truth of the matter is that Fleetwood Mac couldn’t top that success no matter how hard they tried, so it was better for them to indulge themselves and come up with something as unique as Tusk. Lindsey Buckingham directed both Fleetwood Mac and Rumours, but he dominates here, composing nearly half the album, and giving Christine McVie’s and Stevie Nicks’ songs an ethereal, floating quality that turns them into welcome respites from the seriously twisted immersions into Buckingham’s id. This is the ultimate cocaine album – it’s mellow for long stretches, and then bursts wide open in manic, frantic explosions, such as the mounting tension on "The Ledge" or the rampaging "That’s Enough for Me," or the marching band-driven paranoia of the title track, all of which are relieved by smooth, reflective work from all three songwriters. While McVie and Nicks contribute some excellent songs, Buckingham owns this record with his nervous energy and obsessive production, winding up with a fussily detailed yet wildly messy record unlike any other. This is mainstream madness, crazier than Buckingham’s idol Brian Wilson and weirder than any number of cult classics. Of course, that’s why it bombed upon its original release, but Tusk is a bracing, weirdly affecting work that may not be as universal or immediate as Rumours, but is every bit as classic. As a piece of pop art, it’s peerless.

by Stephen Thomas Erlewine, allmusic

Fleetwood Mac - Tusk (1979)

Fleetwood Mac at Wiki | Fleetwood Mac at Discogs | Fleetwood Mac at Allmusic | Fleetwood Mac HomePage

***********

Fleetwood Mac – Tusk (1979):

Fleetwood Mac - Tusk (1979)

Tracklist:

01. Over & Over [04:34]
02. The Ledge [02:08]
03. Think About Me [02:44]
04. Save Me A Place [02:42]
05. Sara (edit) [04:39]
06. What Makes You Think You’re The One [03:32]
07. Storms [05:31]
08. That’s All For Everyone [03:03]
09. Not That Funny [03:11]
10. Sisters Of The Moon [04:42]
11. Angel [04:54]
12. That’s Enough For Me [01:50]
13. Brown Eyes [04:27]
14. Never Make Me Cry [02:18]
15. I Know I’m Not Wrong [03:05]
16. Honey Hi [02:41]
17. Beautiful Child [05:21]
18. Walk A Thin Line [03:46]
19. Tusk [03:36]
20. Never Forget [03:34]

EAC Log
Exact Audio Copy V0.99 prebeta 5 from 4. May 2009

EAC extraction logfile from 20. October 2012, 21:05

FLEETWOOD MAC / Tusk

Used drive : ASUS DRW-24B3ST Adapter: 3 ID: 0

Read mode : Secure
Utilize accurate stream : Yes
Defeat audio cache : Yes
Make use of C2 pointers : No

Read offset correction : 6
Overread into Lead-In and Lead-Out : No
Fill up missing offset samples with silence : Yes
Delete leading and trailing silent blocks : No
Null samples used in CRC calculations : Yes
Used interface : Native Win32 interface for Win NT & 2000

Used output format : User Defined Encoder
Selected bitrate : 1024 kBit/s
Quality : High
Add ID3 tag : No
Command line compressor : C:Program Files (x86)EACWVwavpack.exe
Additional command line options : -h -hh -m %s %d

TOC of the extracted CD

Track | Start | Length | Start sector | End sector
––––––––––––––––––––––––––––-
1 | 0:00.32 | 4:34.45 | 32 | 20626
2 | 4:35.02 | 2:08.10 | 20627 | 30236
3 | 6:43.12 | 2:44.23 | 30237 | 42559
4 | 9:27.35 | 2:42.22 | 42560 | 54731
5 | 12:09.57 | 4:39.40 | 54732 | 75696
6 | 16:49.22 | 3:32.03 | 75697 | 91599
7 | 20:21.25 | 5:31.22 | 91600 | 116446
8 | 25:52.47 | 3:03.00 | 116447 | 130171
9 | 28:55.47 | 3:11.13 | 130172 | 144509
10 | 32:06.60 | 4:42.27 | 144510 | 165686
11 | 36:49.12 | 4:54.40 | 165687 | 187776
12 | 41:43.52 | 1:50.40 | 187777 | 196066
13 | 43:34.17 | 4:27.20 | 196067 | 216111
14 | 48:01.37 | 2:18.20 | 216112 | 226481
15 | 50:19.57 | 3:05.43 | 226482 | 240399
16 | 53:25.25 | 2:41.00 | 240400 | 252474
17 | 56:06.25 | 5:21.02 | 252475 | 276551
18 | 61:27.27 | 3:46.55 | 276552 | 293556
19 | 65:14.07 | 3:36.73 | 293557 | 309829
20 | 68:51.05 | 3:34.17 | 309830 | 325896

Range status and errors

Selected range

Filename G:FLEETWOOD MAC1979- Tusk (US 1990 Warner Bros • 3350-2)FLEETWOOD MAC – Tusk.wav

Peak level 100.0 %
Range quality 100.0 %
Test CRC A66FD6AE
Copy CRC A66FD6AE
Copy OK

No errors occurred

AccurateRip summary

Track 1 accurately ripped (confidence 26) [1A314515]
Track 2 accurately ripped (confidence 26) [E4938C09]
Track 3 accurately ripped (confidence 26) [E2882DB7]
Track 4 accurately ripped (confidence 26) [A3E3E262]
Track 5 accurately ripped (confidence 26) [A79E9C1D]
Track 6 accurately ripped (confidence 26) [3CB0FAA6]
Track 7 accurately ripped (confidence 26) [D4214B19]
Track 8 accurately ripped (confidence 25) [200CADCE]
Track 9 accurately ripped (confidence 26) [E09B4346]
Track 10 accurately ripped (confidence 26) [97DE371F]
Track 11 accurately ripped (confidence 26) [89021A24]
Track 12 accurately ripped (confidence 26) [4088372E]
Track 13 accurately ripped (confidence 25) [DA4775BC]
Track 14 accurately ripped (confidence 25) [3CA6322E]
Track 15 accurately ripped (confidence 25) [00D232A3]
Track 16 accurately ripped (confidence 24) [837DE905]
Track 17 accurately ripped (confidence 24) [765EE09E]
Track 18 accurately ripped (confidence 24) [6E5E31B9]
Track 19 accurately ripped (confidence 23) [F66DBA40]
Track 20 accurately ripped (confidence 22) [C93D7843]

All tracks accurately ripped

End of status report

DR Log
foobar2000 1.2.9 / Dynamic Range Meter 1.1.1
log date: 2016-12-28 16:33:19

––––––––––––––––––––––––––––––––––––––––
Analyzed: FLEETWOOD MAC / Tusk
––––––––––––––––––––––––––––––––––––––––

DR Peak RMS Duration Track
––––––––––––––––––––––––––––––––––––––––
DR16 0.00 dB -18.75 dB 4:35 01-Over & Over
DR12 0.00 dB -14.91 dB 2:08 02-The Ledge
DR13 0.00 dB -14.84 dB 2:44 03-Think About Me
DR15 0.00 dB -17.71 dB 2:42 04-Save Me A Place
DR15 0.00 dB -17.04 dB 4:40 05-Sara (edit)
DR13 0.00 dB -14.28 dB 3:32 06-What Makes You Think You’re The One
DR13 -1.32 dB -17.67 dB 5:31 07-Storms
DR12 -0.15 dB -14.42 dB 3:03 08-That’s All For Everyone
DR11 -0.13 dB -13.03 dB 3:11 09-Not That Funny
DR13 -0.09 dB -16.31 dB 4:42 10-Sisters Of The Moon
DR14 -0.10 dB -16.67 dB 4:55 11-Angel
DR12 -0.17 dB -14.19 dB 1:51 12-That’s Enough For Me
DR16 -0.18 dB -18.95 dB 4:27 13-Brown Eyes
DR10 -7.17 dB -20.28 dB 2:18 14-Never Make Me Cry
DR13 -0.16 dB -15.01 dB 3:06 15-I Know I’m Not Wrong
DR16 -0.31 dB -19.99 dB 2:41 16-Honey Hi
DR14 -0.31 dB -18.97 dB 5:21 17-Beautiful Child
DR13 -0.18 dB -15.20 dB 3:47 18-Walk A Thin Line
DR14 -0.11 dB -17.42 dB 3:37 19-Tusk
DR13 -1.13 dB -16.73 dB 3:34 20-Never Forget
––––––––––––––––––––––––––––––––––––––––

Number of tracks: 20
Official DR value: DR13

Samplerate: 44100 Hz
Channels: 2
Bits per sample: 16
Bitrate: 814 kbps
Codec: FLAC

CUETools Log
[CUETools log; Date: 28.12.2016 16:33:07; Version: 2.1.4]
Pregap length 00:00:32.
[CTDB TOCID: Ft0SZ8NME4.VDI0XGc3IV7xBCEM-] found.
Track | CTDB Status
1 | (62/65) Accurately ripped
2 | (64/65) Accurately ripped
3 | (65/65) Accurately ripped
4 | (65/65) Accurately ripped
5 | (65/65) Accurately ripped
6 | (65/65) Accurately ripped
7 | (65/65) Accurately ripped
8 | (65/65) Accurately ripped
9 | (65/65) Accurately ripped
10 | (64/65) Accurately ripped
11 | (64/65) Accurately ripped
12 | (65/65) Accurately ripped
13 | (65/65) Accurately ripped
14 | (65/65) Accurately ripped
15 | (62/65) Accurately ripped
16 | (64/65) Accurately ripped
17 | (56/65) Accurately ripped
18 | (60/65) Accurately ripped
19 | (62/65) Accurately ripped
20 | (63/65) Accurately ripped
[AccurateRip ID: 0033d74a-02faf64c-0f10f914] found.
Track [ CRC | V2 ] Status
01 [1a314515|b64b1cb7] (029+038/166) Accurately ripped
02 [e4938c09|30469ada] (029+038/165) Accurately ripped
03 [e2882db7|92647d2f] (029+038/167) Accurately ripped
04 [a3e3e262|c5b98846] (029+038/168) Accurately ripped
05 [a79e9c1d|17560392] (028+040/169) Accurately ripped
06 [3cb0faa6|6935293d] (029+038/168) Accurately ripped
07 [d4214b19|3f8b03d7] (029+038/165) Accurately ripped
08 [200cadce|98a0b013] (028+038/166) Accurately ripped
09 [e09b4346|fa4d2ba8] (029+038/167) Accurately ripped
10 [97de371f|718e712e] (029+038/168) Accurately ripped
11 [89021a24|25a5b0de] (028+038/166) Accurately ripped
12 [4088372e|ab476abe] (028+038/166) Accurately ripped
13 [da4775bc|22b2235a] (027+037/164) Accurately ripped
14 [3ca6322e|b542e5a0] (028+038/167) Accurately ripped
15 [00d232a3|dc096da6] (028+037/166) Accurately ripped
16 [837de905|9cb36c29] (026+038/165) Accurately ripped
17 [765ee09e|eed579a7] (027+037/161) Accurately ripped
18 [6e5e31b9|fdb1aec4] (026+035/163) Accurately ripped
19 [f66dba40|0fc351ff] (026+037/165) Accurately ripped
20 [c93d7843|2276598f] (024+035/158) Accurately ripped
Offsetted by -1317:
01 [a179af09] (012/166) Accurately ripped
02 [39a33850] (012/165) Accurately ripped
03 [9de7a8c8] (012/167) Accurately ripped
04 [453b7798] (012/168) Accurately ripped
05 [4519dd7a] (012/169) Accurately ripped
06 [d0c08170] (012/168) Accurately ripped
07 [8ba1b32b] (012/165) Accurately ripped
08 [bf96fdb3] (012/166) Accurately ripped
09 [3a4660c7] (012/167) Accurately ripped
10 [7f5c966a] (012/168) Accurately ripped
11 [d60dbaca] (012/166) Accurately ripped
12 [07950e54] (012/166) Accurately ripped
13 [38752ddd] (012/164) Accurately ripped
14 [cfa2296f] (012/167) Accurately ripped
15 [eafd69d1] (012/166) Accurately ripped
16 [9d3b9160] (012/165) Accurately ripped
17 [e8d943ff] (011/161) Accurately ripped
18 [a6e11d94] (012/163) Accurately ripped
19 [5b40d023] (012/165) Accurately ripped
20 [eed726ce] (012/158) Accurately ripped
Offsetted by 57:
01 [a7df6951] (011/166) Accurately ripped
02 [29c9af26] (011/165) Accurately ripped
03 [a55b39e2] (011/167) Accurately ripped
04 [7fc00554] (011/168) Accurately ripped
05 [048572cc] (011/169) Accurately ripped
06 [b4d34bb4] (011/168) Accurately ripped
07 [c49b71bf] (010/165) Accurately ripped
08 [2b38d7d5] (011/166) Accurately ripped
09 [93d52b41] (011/167) Accurately ripped
10 [525e4928] (011/168) Accurately ripped
11 [fca28be6] (011/166) Accurately ripped
12 [994d5870] (011/166) Accurately ripped
13 [8fa48897] (011/164) Accurately ripped
14 [ca67f969] (011/167) Accurately ripped
15 [23014fbd] (011/166) Accurately ripped
16 [b19cc5be] (011/165) Accurately ripped
17 [f789fb39] (011/161) Accurately ripped
18 [98d2fcf2] (011/163) Accurately ripped
19 [6ac68f51] (011/165) Accurately ripped
20 [695d9d20] (011/158) Accurately ripped
Offsetted by 118:
01 [0999c5fd] (011/166) Accurately ripped
02 [110c9a57] (011/165) Accurately ripped
03 [ea9fe419] (011/167) Accurately ripped
04 [c4dd024e] (012/168) Accurately ripped
05 [67f14217] (012/169) Accurately ripped
06 [42dd12ba] (012/168) Accurately ripped
07 [28c457bd] (012/165) Accurately ripped
08 [20b8f2d8] (012/166) Accurately ripped
09 [4f251a88] (012/167) Accurately ripped
10 [46de5c75] (012/168) Accurately ripped
11 [4ff46cf0] (012/166) Accurately ripped
12 [719096fa] (012/166) Accurately ripped
13 [d3faaa3e] (012/164) Accurately ripped
14 [78912cf0] (012/167) Accurately ripped
15 [f241347f] (012/166) Accurately ripped
16 [b60ea47b] (012/165) Accurately ripped
17 [1a793ba0] (011/161) Accurately ripped
18 [129c542f] (012/163) Accurately ripped
19 [f94092c6] (012/165) Accurately ripped
20 [46c199cf] (012/158) Accurately ripped
Offsetted by 957:
01 [069d03c1] (006/166) Accurately ripped
02 [970588ba] (005/165) Accurately ripped
03 [4b37226e] (006/167) Accurately ripped
04 [01bfa65c] (006/168) Accurately ripped
05 [bf63f3e8] (006/169) Accurately ripped
06 [f541faac] (006/168) Accurately ripped
07 [71319e17] (006/165) Accurately ripped
08 [1effa551] (006/166) Accurately ripped
09 [af31950d] (005/167) Accurately ripped
10 [4c5f65ec] (006/168) Accurately ripped
11 [97955a2e] (006/166) Accurately ripped
12 [a72514b8] (006/166) Accurately ripped
13 [388a89e3] (006/164) Accurately ripped
14 [454e2835] (006/167) Accurately ripped
15 [3ec0ca65] (006/166) Accurately ripped
16 [10918b42] (006/165) Accurately ripped
17 [24ef3385] (006/161) Accurately ripped
18 [52220c76] (006/163) Accurately ripped
19 [61f05535] (006/165) Accurately ripped
20 [35c5980f] (006/158) Accurately ripped

Track Peak [ CRC32 ] [W/O NULL] [ LOG ]
– 100,0 [A66FD6AE] [4C72B49F] CRC32
01 100,0 [59F6F117] [B06FE193]
02 100,0 [D4E431EC] [84730D80]
03 100,0 [0BA4CC3D] [18D3F8AC]
04 100,0 [D4DC880D] [FBB85220]
05 100,0 [99A930CB] [542795C4]
06 100,0 [0257E21B] [9290A448]
07 85,9 [41173E7C] [6983731C]
08 98,3 [AD99025A] [B8D39142]
09 98,5 [1BF310B8] [7AC07BB1]
10 98,9 [B6F4663B] [74D5AA7A]
11 98,8 [88F851E1] [F5732313]
12 98,0 [3C7F83AF] [71EB340E]
13 97,9 [D8066CA6] [3D01F624]
14 43,8 [B9D8D3A3] [A482A9E9]
15 98,1 [AA88660A] [A6702FAF]
16 96,4 [C27F16A5] [6B3C7A42]
17 96,4 [DCC18616] [8AF98042]
18 97,9 [CADD71C5] [9F5176C0]
19 98,6 [75759AB3] [CBFA21A3]
20 87,7 [7F385E61] [EA3C2D69]

Fleetwood Mac - Tusk (1979)

All thanks go to the original releaser

Fleetwood Mac in my Blog

Download Fleetwood Mac – Tusk (1979):

Fleetwood Mac – Tusk (1979) Download, Warez, DDL, Free, Full Album, Torrent, Legal.

Download


  • Recent Posts

  • Recent Tags